Welcome Guest ( Log In | Register )

> Auroch - Stolen Angelic Tongues [ep] (2020), Blackened Death Metal (D7)
post Apr 23 2020, 14:15:59
Post #1

Правь статус, ####!111
**************
Group: Металариец
Posts: 25,788
Releases: 18466
From: Г.Харьков
On Forums: 8 years 11 months
Thanks: 364666 time(s)
Unknown


(IMG:http://metalarea.org/images/audiocovers/2020_Apr/acov_tid336700_thumb.jpg)

*Artist: Auroch
*Album: Stolen Angelic Tongues [ep]
*Year: 2020
*Genre: Blackened Death Metal
*Country: Canada (IMG:http://metalarea.org/forum/style_images/flags/Canada.png)
*Format: mp3@CBR320kbps
*Size: 43MB

Tracklist:
1. Shattering the Axis Mundi 01:05
2. Hideous New Gods 03:41
3. Carving the Axis Mundi 06:32
4. Coffin Nails 03:17
5. Erecting the Axis Mundi 03:30
******************************
Total playing time: 18:05




Extended info
Sebastian Montesi Guitars, Vocals
Culain Vocals, Percussion
Zack Chandler Drums
Shawn Hache Bass, Vocals
Philip Fiess Guitars, Vocals


Technical info
(IMG:http://metalarea.org/images/spectrogram/2020_Apr/6f51ffa3c7d6b8dbefb906317b7bcd95.png)
Input File: 03. Carving the Axis Mundi.mp3
Channels : 2
Sample Rate : 44100
Precision : 16-bit
Duration : 00:06:33.66 = 17360582 samples = 29524.8 CDDA sectors
File Size : 16.0M
Bit Rate : 326k
Sample Encoding: MPEG audio (layer I, II or III)
Comments :
Title=Carving the Axis Mundi
Artist=Auroch
Album=Stolen Angelic Tongues
Tracknumber=3
Year=2020
Genre=Death/Black
Discnumber=1



Register


Go to the top of the page
  Insert nick Quick quote
+Quote Post
 
Start new topic
Replies (1 - 3)
post Apr 26 2020, 10:10:18
Post #2

Шесть Литров
******
Group: Металариец
Posts: 608
Releases: 1
From: АР Крым, Симферополь
On Forums: 13 years 2 weeks
Thanks: 309 time(s)
Russian Federation


Молодцы канадцы, добротный материал нарулили, эдакий канадский дэтовый Cult Of Fire.


Thanks:
Go to the top of the page
  Insert nick Quick quote
+Quote Post
post May 9 2020, 00:22:15
Post #3

Правь статус, ####!111
**************
Group: Металариец
Posts: 4,332
Releases: 17
From: Holland
On Forums: 14 years 9 months
Thanks: 1405 time(s)
Netherlands


Очень добротная ипиха.
Обычно их музыка за пределами моего понимания, а тут прям вполне себе все доходчиво сделано. При этом, не просто, совсем не просто. Закручено как и положено этим ребятам.
Послушал с удовольствием.
Go to the top of the page
  Insert nick Quick quote
+Quote Post
post Aug 28 2020, 13:56:27
Post #4

Правь статус, ####!111
**************
Group: Металариец
Posts: 4,263
Releases: 161
From: MoscoW
On Forums: 14 years 4 months
Thanks: 4321 time(s)
Russian Federation


20 BUCK SPIN Records:
Go to the top of the page
  Insert nick Quick quote
+Quote Post

Reply to this topicStart new topic
2 User(s) are reading this topic (2 Guests and 0 Anonymous Users)
0 Members:

 



- Lo-Fi Version Support form
Copyrights and abuse reports form
Time is now: 19th April 2021 - 09:51:38