Welcome Guest ( Log In | Register )

 
Reply to this topicStart new topic
> Primitive Man - Scorn (2013), Blackened Sludge/Doom Metal
post Apr 24 2020, 14:44:06
Post #1

Правь статус, ####!111
**************
Group: Металариец
Posts: 2,127
Releases: 266
From: Omsk, Siberia
On Forums: 13 years 4 months
Thanks: 5308 time(s)
Russian Federation


(IMG:http://metalarea.org/images/audiocovers/2020_Apr/acov_tid336772_thumb.jpg)

*Artist: Primitive Man
*Album: Scorn
*Year: 2013
*Genre: Blackened Sludge/Doom Metal
*Country: United States (IMG:http://metalarea.org/forum/style_images/flags/United%20States.png)
*Format: mp3@CBR320kbps
*Size: 124MB

Tracklist:
1. Scorn 11:44
2. Rags 04:36
3. I Can't Forget 03:23
4. Antietam 09:08
5. Black Smoke 03:11
6. Stretched Thin 02:54
7. Astral Sleep 04:50
8. Lifetime (bonus track) 03:43
9. Innard$ (bonus track) 04:14
10. I Am Above You (bonus track) 06:32
******************************
Total playing time: 54:21




(IMG:http://metalarea.org/images/youtube.png)

Extended info
Deluxe version available in August 2013 on CD/LP/Digital via Relapse Records.

Line-up:
Ethan L. McCarthy - vocals, guitar
Jonathan Campos - bass
Bennett Kennedy - drums
Isidro Soto - drums (tracks 8, 10)


Technical info
(IMG:http://metalarea.org/images/spectrogram/2020_Apr/07a6e4afcbce49e89b853590ce36dcd1.png)
Input File: 06 - Stretched Thin.mp3
Channels : 2
Sample Rate : 44100
Precision : 16-bit
Duration : 00:02:54.74 = 7706122 samples = 13105.6 CDDA sectors
File Size : 7.01M
Bit Rate : 321k
Sample Encoding: MPEG audio (layer I, II or III)
Comments :
Title=Stretched Thin
Artist=Primitive Man
Album=Scorn (Deluxe Version)
Tracknumber=6/10
Year=2013-08-20
Genre=Metal
Discnumber=1/1



Register


Go to the top of the page
  Insert nick Quick quote
+Quote Post

Reply to this topicStart new topic
1 User(s) are reading this topic (1 Guests and 0 Anonymous Users)
0 Members:

 



- Lo-Fi Version Support form
Copyrights and abuse reports form
Time is now: 15th August 2022 - 02:46:03