Welcome Guest ( Log In | Register )

> Raven Payne - No Remorse (2000), Heavy Metal
post Apr 25 2020, 09:23:16
Post #1

Подвал
**************
Group: Металариец
Posts: 15,800
Releases: 9027
From: Far East (Khabarovsk)
On Forums: 12 years 1 month
Thanks: 99942 time(s)
Russian Federation


(IMG:http://metalarea.org/images/audiocovers/2020_Apr/acov_tid336817_thumb.jpg)

*Artist: Raven Payne
*Album: No Remorse
*Year: 2000
*Genre: Heavy Metal
*Country: United States (IMG:http://metalarea.org/forum/style_images/flags/United%20States.png)
*Format: mp3@CBR192kbps
*Size: 55MB

Tracklist:
1. Song X 05:04
2. Crucifixion 05:28
3. Bass Solo (DBK51) / No Remorse 06:01
4. Armageddon 04:22
5. Into The Light 04:56
6. Escape The Dragon 05:09
7. The Unknown / Gutless 09:08
******************************
Total playing time: 40:08

Extended info
Band from Detroit, Michigan.


Technical info
(IMG:http://metalarea.org/images/spectrogram/2020_Apr/5f67ae2a20c62c08f3ec3b2d081799fb.png)
Input File: 01-Song X.mp3
Channels : 2
Sample Rate : 44100
Precision : 16-bit
Duration : 00:05:04.79 = 13441019 samples = 22858.9 CDDA sectors
File Size : 7.32M
Bit Rate : 192k
Sample Encoding: MPEG audio (layer I, II or III)
Comments :
Title=Song X
Artist=Raven Payne
Album=No Remorse
Tracknumber=01
Year=2000
Genre=Heavy Metal



Register


Go to the top of the page
  Insert nick Quick quote
+Quote Post
 
Start new topic
Replies (1 - 1)
post Jan 25 2021, 20:00:14
Post #2

Правь статус, ####!111
**************
Group: Металариец
Posts: 2,398
Releases: 0
On Forums: 5 years 10 months
Thanks: 3077 time(s)
Russian Federation


320
Register


Thanks:
Go to the top of the page
  Insert nick Quick quote
+Quote Post

Reply to this topicStart new topic
1 User(s) are reading this topic (1 Guests and 0 Anonymous Users)
0 Members:

 



- Lo-Fi Version Support form
Copyrights and abuse reports form
Time is now: 8th March 2021 - 01:47:42