Welcome Guest ( Log In | Register )

> Head Of The Demon - Deadly Black Doom (2020), Occult Doom Metal
post Apr 29 2020, 12:40:57
Post #1

Правь статус, ####!111
**************
Group: Металариец
Posts: 25,773
Releases: 18452
From: Г.Харьков
On Forums: 8 years 11 months
Thanks: 364215 time(s)
Unknown


(IMG:http://metalarea.org/images/audiocovers/2020_Apr/acov_tid336997_thumb.jpg)

*Artist: Head Of The Demon
*Album: Deadly Black Doom
*Year: 2020
*Genre: Occult Doom Metal
*Country: Sweden (IMG:http://metalarea.org/forum/style_images/flags/Sweden.png)
*Format: mp3@CBR320kbps
*Size: 115MB

Tracklist:
1. The House of Peor 09:14
2. Dawn Walker 07:17
3. En To Pan 08:33
4. Set-Sutekh 07:04
5. St. Cyprian 08:09
6. Voidsoul 09:49
******************************
Total playing time: 50:06




Extended info
José Bass
See also: The Royal Cream, Twopointeight
Johannes Guitars, Vocals
See also: Mortuus, Serpent Noir, ex-Shade of Black, ex-Dödfödd, ex-Ofermod, ex-Ondskapt (live)
Saibot Vocals
Thomas Drums (2012-present)
See also: ex-A Mind Confused, ex-Gods of Grief, ex-Kaamos
Konstantin Guitars, Bass (2012-present)
See also: ex-A Mind Confused, ex-Gods of Grief, ex-Kaamos, ex-Saturnalia Temple, ex-Dead Congregation (live)


Technical info
(IMG:http://metalarea.org/images/spectrogram/2020_Apr/4b3ce1430f2181faa54f6c68daa97a8b.png)
Input File: 3 - En to Pan.mp3
Channels : 2
Sample Rate : 44100
Precision : 16-bit
Duration : 00:08:32.61 = 22605925 samples = 38445.5 CDDA sectors
File Size : 20.6M
Bit Rate : 322k
Sample Encoding: MPEG audio (layer I, II or III)
Comments :
Title=En to Pan
Artist=Head of The Demon
Album=Deadly Black Doom
Tracknumber=3
Year=2020
Genre=Alternative / Indie Rock / Metal
Discnumber=1



Register


Go to the top of the page
  Insert nick Quick quote
+Quote Post
 
Start new topic
Replies (1 - 2)
post Apr 29 2020, 16:33:31
Post #2

Шесть Литров
******
Group: Металариец
Posts: 608
Releases: 1
From: АР Крым, Симферополь
On Forums: 13 years 2 weeks
Thanks: 309 time(s)
Russian Federation


Samaritianin, бро, гранд мерси, давно уже в ожидании сего чудного релиза!! (IMG:style_emoticons/default/25.gif)
(IMG:style_emoticons/default/9.gif) (IMG:style_emoticons/default/9.gif) (IMG:style_emoticons/default/9.gif) (IMG:style_emoticons/default/9.gif) (IMG:style_emoticons/default/9.gif) (IMG:style_emoticons/default/9.gif)


Go to the top of the page
  Insert nick Quick quote
+Quote Post
post May 3 2020, 13:12:36
Post #3

Восемь Литров
********
Group: Металариец
Posts: 874
Releases: 0
From: South Of Heaven
On Forums: 13 years 8 months
Thanks: 412 time(s)
Ukraine


Интересный альбом, зачёт! (IMG:style_emoticons/default/metaler.gif)
Релизёру (IMG:style_emoticons/default/9.gif) (IMG:style_emoticons/default/9.gif)


Thanks:
(1) Occultas,
Go to the top of the page
  Insert nick Quick quote
+Quote Post

Reply to this topicStart new topic
2 User(s) are reading this topic (2 Guests and 0 Anonymous Users)
0 Members:

 



- Lo-Fi Version Support form
Copyrights and abuse reports form
Time is now: 18th April 2021 - 00:51:25