Welcome Guest ( Log In | Register )

> Slug Mammoth - Inhuman (2020), Stoner Metal
post Apr 30 2020, 08:29:06
Post #1

Правь статус, ####!111
**************
Group: Металариец
Posts: 3,892
Releases: 3549
From: Одесса
On Forums: 12 years 10 months
Thanks: 37953 time(s)
Ukraine


(IMG:http://metalarea.org/images/audiocovers/2020_Apr/acov_tid337026_thumb.jpg)

*Artist: Slug Mammoth
*Album: Inhuman
*Year: 2020
*Genre: Stoner Metal
*Country: Finland (IMG:http://metalarea.org/forum/style_images/flags/Finland.png)
*Format: mp3@CBR320kbps
*Size: 77MB

Tracklist:
1. Anabolic 05:44
2. Murkier Depth's Dweller 06:47
3. Slumber Haze 07:01
4. Apotheosis 04:25
5. Gospel of the Void 07:55
******************************
Total playing time: 31:52



Extended info
Line - up:

Samu Pusila - Bass (Holy Life)
Joona Virtanen - Drums
Ville Helppi - Guitars
Ville Lehtinen - Vocals (ex-Bulldozer, ex-Cosmic Spell, ex-Uttervoid, ex-Sentiment)

(IMG:https://www.metal-archives.com/images/3/5/4/0/3540411667_photo.jpg?3706)


Technical info
(IMG:http://metalarea.org/images/spectrogram/2020_Apr/82b869d7d2d6f05e053be1e92ec22a47.png)
Input File: 5 - Gospel of the Void.mp3
Channels : 2
Sample Rate : 44100
Precision : 16-bit
Duration : 00:07:55.93 = 20988425 samples = 35694.6 CDDA sectors
File Size : 19.1M
Bit Rate : 321k
Sample Encoding: MPEG audio (layer I, II or III)
Comments :
Title=Gospel of the Void
Artist=Slug Mammoth
Album=Inhuman
Tracknumber=5
Year=2020
Genre=Stoner Metal



Register


Go to the top of the page
  Insert nick Quick quote
+Quote Post
 
Start new topic
Replies (1 - 2)
post Apr 30 2020, 20:47:43
Post #2

Шесть Литров
******
Group: Металариец
Posts: 608
Releases: 1
From: АР Крым, Симферополь
On Forums: 13 years 2 weeks
Thanks: 309 time(s)
Russian Federation


Весьма неплохо так, саунд жирный нарулили, молодцы финны!! (IMG:style_emoticons/default/m0114.gif) (IMG:style_emoticons/default/m1234.gif) (IMG:style_emoticons/default/20.gif)
З.Ы. Однозначно лучше и мощнее их дебютной епихи трех летней давности.


Thanks:
(1) StabWound,
Go to the top of the page
  Insert nick Quick quote
+Quote Post
post May 1 2020, 20:37:38
Post #3

NoneSoVile
**********
Group: Металариец
Posts: 1,357
Releases: 7
On Forums: 14 years 11 months
Thanks: 1594 time(s)
Australia


All hail the Slug Mammoth...

Head over to Bandcamp and have a read of the production values. This is how you produce a fucking METAL album, not that shit Vader just put out, motherfuckers.

Even on low volumes, the base on this shakes ya whole house...

Grind up some Peyote Cookies and turn this fucker to 11.. float away on the sounds of the cosmic Wärtsilä engine.

(IMG:style_emoticons/default/25.gif)
Go to the top of the page
  Insert nick Quick quote
+Quote Post

Reply to this topicStart new topic
2 User(s) are reading this topic (2 Guests and 0 Anonymous Users)
0 Members:

 



- Lo-Fi Version Support form
Copyrights and abuse reports form
Time is now: 18th April 2021 - 00:49:27