Welcome Guest ( Log In | Register )

> И неформату есть предел.

Рэп/хип-хоп/шансон/поп удаляются. Для них есть свои порталы.

> Ulvesang - The Hunt (2018), Dark Folk/Neofolk
post May 1 2020, 13:08:42
Post #1

Правдоруб)
**************
Group: Металариец
Posts: 2,880
Releases: 1
From: Украина, Днепр
On Forums: 9 years 8 months
Thanks: 2354 time(s)
Ukraine


(IMG:https://metalarea.org/images/audiocovers/2020_May/acov_tid337091_thumb.jpg)

*Artist: Ulvesang
*Album: The Hunt
*Year: 2018
*Genre: Dark Folk/Neofolk
*Country: Canada (IMG:https://metalarea.org/forum/style_images/flags/Canada.png)
*Format: mp3@CBR320kbps
*Size: 95MB

Tracklist:
1.Invocation 02:02
2.The Trial 04:55
3.The Dance 05:58
4.The End 05:43
5.The Hunt 05:06
6.The Break 04:38
7.The Run 05:38
8.The Gloom 05:18
9.The Truth 03:57
10.Močvara 02:41
******************************
Total playing time: 45:56

Extended info
Жанр
Neofolk | Darkfolk

Участники группы
Alex Boyd & Ana Dujaković

Родной город
Canada

Информация
Darkfolk/Neofolk band from Nova Scotia, Canada. Inspired by nature, animals, folklore, struggles with mental illness, and melancholy. Located in Mi’kma’ki, the ancestral and unceded territory of the Mi’kmaq Indigenous people.

Биография
Ulvesang is the collective effort of two individuals sharing an interest in melancholic, naturalistic, neofolk/darkfolk music. Our influences will be obvious to those familiar with the genre, but we strive to build our own unique take on a pre-established sound. We hope to build stories and ambiance with our music, and build songs that follow some thematic progression.


Technical info
(IMG:https://metalarea.org/images/spectrogram/2020_May/bad848b09b7de03b876a806cf8f536d2.png)
Input File: 01 Invocation.mp3
Channels : 2
Sample Rate : 44100
Precision : 16-bit
Duration : 00:02:02.52 = 5403308 samples = 9189.3 CDDA sectors
File Size : 5.05M
Bit Rate : 330k
Sample Encoding: MPEG audio (layer I, II or III)
Comments :
Title=Invocation
Artist=Ulvesang
Album=The Hunt
Tracknumber=1/10
Year=2018
Genre=80
Discnumber=1/1



Register


Go to the top of the page
  Insert nick Quick quote
+Quote Post
 
Start new topic
Replies (1 - 2)
post May 2 2020, 11:38:55
Post #2

the ubspeakable
**********
Group: Металариец
Posts: 1,382
Releases: 37
From: Pietari
On Forums: 17 years 1 month
Thanks: 2250 time(s)
Russian Federation





Thanks:
Go to the top of the page
  Insert nick Quick quote
+Quote Post
post Jun 24 2022, 14:21:54
Post #3
BAN
Banned till
Feb 2 2023, 15:40:27



FLAC -
Register


Thanks:
Go to the top of the page
  Insert nick Quick quote
+Quote Post

Reply to this topicStart new topic
1 User(s) are reading this topic (1 Guests and 0 Anonymous Users)
0 Members:

 



- Lo-Fi Version Support form
Copyrights and abuse reports form
Time is now: 4th February 2023 - 16:56:06