Welcome Guest ( Log In | Register )

> Teramaze - Are We Soldiers (2019), Progressive Metal/Rock (D)
post May 4 2020, 08:26:01
Post #1

Правь статус, ####!111
**************
Group: Металариец
Posts: 3,013
Releases: 2701
From: Одесса
On Forums: 12 years 3 months
Thanks: 26663 time(s)
Ukraine


(IMG:http://metalarea.org/images/audiocovers/2020_May/acov_tid337257_thumb.jpg)

*Artist: Teramaze
*Album: Are We Soldiers
*Year: 2019
*Genre: Progressive Metal/Rock
*Country: Australia (IMG:http://metalarea.org/forum/style_images/flags/Australia.png)
*Format: mp3@CBR320kbps
*Size: 164MB

Tracklist:
1. Fight or Flight 05:36
2. Are We Soldiers 06:54
3. Control Conquer Collide 07:46
4. From Saviour to Assassin 05:10
5. Orwellian Time 07:45
6. M.O.N.S.T.E.R.S. 05:44
7. Weight of Humanity 06:54
8. Fact Resistant Human 05:10
9. The One Percent Disarm 06:26
10. Depopulate 11:58
******************************
Total playing time: 1:09:23

iTunes

Extended info
Line - up:

Dean Wells - Guitars, Vocals (backing) (Meshiaak)
Andrew Cameron - Bass (Meshiaak, Metanoia)
Nick Ross - Drums
Brett Rerekura - Vocals
Jonah Weingarten - Keyboards (Echoterra, Pyramaze, Structure of Inhumanity, Universal Mind Project, MindMaze (live), Arretohce, Dance of the Mourning Child, We Are Sentinels, ex-Avian, ex-Malacoda, ex-Infernal Method, ex-Written in Blood, ex-Lilitu, ex-Blood Promise, ex-Legion of Carcaroth)







Technical info
(IMG:http://metalarea.org/images/spectrogram/2020_May/1d5e46347bd6d9ee0a4707cbece908be.png)
Input File: 04. From Saviour To Assassin.mp3
Channels : 2
Sample Rate : 44100
Precision : 16-bit
Duration : 00:05:09.86 = 13664738 samples = 23239.4 CDDA sectors
File Size : 12.4M
Bit Rate : 320k
Sample Encoding: MPEG audio (layer I, II or III)
Comments :
Title=From Saviour To Assassin
Artist=Teramaze
Album=Are We Soldiers
Tracknumber=4
Year=2019
Genre=Progressive Metal/Rock



Register


Go to the top of the page
  Insert nick Quick quote
+Quote Post
 
Start new topic
Replies (1 - 5)
post May 4 2020, 14:50:17
Post #2

hearer & reader
**************
Group: Металариец
Posts: 8,994
Releases: 157
From: Moscow
On Forums: 13 years 2 weeks
Thanks: 9481 time(s)
Russian Federation


https://music.yandex.ru/album/7823119
Интересно, вроде. Эх, скачаю, давно альтернативкой себя не баловал.
Go to the top of the page
  Insert nick Quick quote
+Quote Post
post May 4 2020, 15:11:02
Post #3

грызущие вместе
*****
Group: Металариец
Posts: 400
Releases: 0
From: Moscow/MO
On Forums: 13 years 10 months
Thanks: 127 time(s)
Russian Federation


ЦИТАТА
Formed under the name Terrormaze. The name change was caused by the members' discovery of Christianity, which changed the band's lyrical focus
(IMG:style_emoticons/default/hmm.gif)
Go to the top of the page
  Insert nick Quick quote
+Quote Post
post May 5 2020, 11:38:59
Post #4

Dark Ambient Shoujo
**********
Group: Металариец
Posts: 1,300
Releases: 2
On Forums: 11 years 8 months
Thanks: 747 time(s)
Russian Federation


Отличный альбом!
Go to the top of the page
  Insert nick Quick quote
+Quote Post
post May 7 2020, 20:35:06
Post #5

21st Century Schizoid Man
**************
Group: Металариец
Posts: 6,584
Releases: 81
From: Moscow
On Forums: 12 years 4 months
Thanks: 5484 time(s)
Russian Federation


Немного попсово-сахарный, но всё равно хороший альбом.


Thanks:
(1) Ghostb,
Go to the top of the page
  Insert nick Quick quote
+Quote Post
post Jun 3 2020, 04:32:07
Post #6

Ъ
**************
Group: Металариец
Posts: 10,224
Releases: 9
On Forums: 11 years 8 months
Thanks: 2064 time(s)
Sweden


На раз послушать можно, но вообще крайне притарно конечно, жаль что они смягчились, 2014 очень даже нравился, хотя и был ультра мягким, все таки грань соплей не пересек. Мне одному в Депопулейт то тут то там какие то флешбеки от Tool - Vicarious прилетали?
Go to the top of the page
  Insert nick Quick quote
+Quote Post

Reply to this topicStart new topic
2 User(s) are reading this topic (2 Guests and 0 Anonymous Users)
0 Members:

 



- Lo-Fi Version Support form
Copyrights and abuse reports form
Time is now: 21st September 2020 - 21:04:28