Welcome Guest ( Log In | Register )

> И неформату есть предел.

Рэп/хип-хоп/шансон/поп удаляются. Для них есть свои порталы.

> Dead Sea Apes - Spectral Domain (2015), Drone/Psychedelic/Post-Rock/Experimental
post May 5 2020, 08:51:38
Post #1

Литр
*
Group: Подсевший
Posts: 55
Releases: 17
On Forums: 10 years 11 months
Thanks: 310 time(s)
Ukraine


(IMG:http://metalarea.org/images/audiocovers/2020_May/acov_tid337293_thumb.jpg)

*Artist: Dead Sea Apes
*Album: Spectral Domain
*Year: 2015
*Genre: Drone/Psychedelic/Post-Rock/Experimental
*Country: United Kingdom (IMG:http://metalarea.org/forum/style_images/flags/United%20Kingdom.png)
*Format: mp3@CBR320kbps
*Size: 95MB

Tracklist:
1. Universal Interrogator 10:29
2. True Believers 09:50
3. The Unclosing Eye 06:30
4. Brought To Light 04:08
5. Sixth Side Of The Pentagon 11:17
******************************
Total playing time: 42:14



Technical info
(IMG:http://metalarea.org/images/spectrogram/2020_May/ecd672a4d8a6fcd7931e7ce8f09a505a.png)
Input File: 04 Brought To Light.mp3
Channels : 2
Sample Rate : 44100
Precision : 16-bit
Duration : 00:04:08.86 = 10974682 samples = 18664.4 CDDA sectors
File Size : 9.96M
Bit Rate : 320k
Sample Encoding: MPEG audio (layer I, II or III)
Comments :
Title=Brought To Light
Artist=Dead Sea Apes
Album=Spectral Domain
Tracknumber=04/05
Year=2015



Register


Thanks:
Go to the top of the page
  Insert nick Quick quote
+Quote Post
 
Start new topic
Replies (1 - 2)
post May 12 2020, 08:32:14
Post #2

####!111
**************
Group: Металариец
Posts: 4,061
Releases: 127
From: The Mountain Of DOOM
On Forums: 12 years 9 months
Thanks: 5612 time(s)
Russian Federation


Видимо Drone тут в том, что иногда похоже на поздний Earth, которые его когда-то играли.
Экспериментаторства тоже не замечено
Go to the top of the page
  Insert nick Quick quote
+Quote Post
post May 12 2020, 10:39:12
Post #3
BAN
Banned till
Jul 17 2020, 21:47:37



Un4given, на ластфм описание ещё смешнее - Dead Sea Apes is an instrumental group based in Manchester. Formed in mid-2009, their music is a dynamic blend of desert rock, drone, garage rock, krautrock, post-rock, western soundtracks and psychedelia.


Thanks:
(1) Ghostb,
Go to the top of the page
  Insert nick Quick quote
+Quote Post

Reply to this topicStart new topic
2 User(s) are reading this topic (2 Guests and 0 Anonymous Users)
0 Members:

 



- Lo-Fi Version Support form
Copyrights and abuse reports form
Time is now: 14th July 2020 - 10:02:56