Welcome Guest ( Log In | Register )

> И неформату есть предел.

Рэп/хип-хоп/шансон/поп удаляются. Для них есть свои порталы.

> Vert:X - Death To False Motorik (2018), Krautrock
post May 5 2020, 11:41:38
Post #1

Правь статус, ####!111
**************
Group: Металариец
Posts: 46,459
Releases: 717
On Forums: 10 years 11 months
Thanks: 38976 time(s)
Russian Federation


(IMG:http://metalarea.org/images/audiocovers/2020_May/acov_tid337299_thumb.jpg)

*Artist: Vert:X
*Album: Death To False Motorik
*Year: 2018
*Genre: Krautrock
*Country: United Kingdom (IMG:http://metalarea.org/forum/style_images/flags/United%20Kingdom.png)
*Format: mp3@CBR320kbps
*Size: 142MB

Tracklist:
1. Clus 08:50
2. Fix 1 11:44
3. Fix 2 05:03
4. Cubed Mind 11:46
5. Fix 4 07:25
6. Fix 3 08:34
7. Ofn Yn Canu (Fear Sings) 08:14
******************************
Total playing time: 1:01:36



Technical info
(IMG:http://metalarea.org/images/spectrogram/2020_May/3b89d656d00f43a26cbabba61abc79aa.png)
Input File: 01. vert-x - clus.mp3
Channels : 2
Sample Rate : 44100
Precision : 16-bit
Duration : 00:08:50.58 = 23398534 samples = 39793.4 CDDA sectors
File Size : 21.3M
Bit Rate : 321k
Sample Encoding: MPEG audio (layer I, II or III)
Comments :
Title=Clus
Artist=Vert:x
Album=Death To False Motorik
Tracknumber=1
Year=2018
Genre=Motoric Psych



Register


Thanks:
Go to the top of the page
  Insert nick Quick quote
+Quote Post
 
Start new topic
Replies (1 - 1)
post May 6 2020, 15:39:57
Post #2

Правь статус, ####!111
**************
Group: Металариец
Posts: 46,459
Releases: 717
On Forums: 10 years 11 months
Thanks: 38976 time(s)
Russian Federation


Приятный атмосферный "шумный" моторик.

Не знаю, так ли он тот самый "non false", но работа безусловно достойная.
Go to the top of the page
  Insert nick Quick quote
+Quote Post

Reply to this topicStart new topic
1 User(s) are reading this topic (1 Guests and 0 Anonymous Users)
0 Members:

 



- Lo-Fi Version Support form
Copyrights and abuse reports form
Time is now: 31st May 2020 - 05:22:14