Welcome Guest ( Log In | Register )

> И неформату есть предел.

Рэп/хип-хоп/шансон/поп удаляются. Для них есть свои порталы.

> Joe Satriani - Shapeshifting (2020), Instrumental Hard Rock (D11)
post May 5 2020, 18:48:38
Post #1

MDM-Thrash Metal
**************
Group: Металариец
Posts: 9,534
Releases: 865
From: Одесса
On Forums: 12 years 9 months
Thanks: 22654 time(s)
Ukraine


(IMG:http://metalarea.org/images/audiocovers/2020_May/acov_tid337312_thumb.jpg)

*Artist: Joe Satriani
*Album: Shapeshifting
*Year: 2020
*Genre: Instrumental Hard Rock
*Country: United States (IMG:http://metalarea.org/forum/style_images/flags/United%20States.png)
*Format: mp3@CBR320kbps
*Size: 108MB

Tracklist:
01. Shapeshifting
02. Big Distortion
03. All For Love
04. Ali Farka, Dick Dale, An Alien And Me
05. Teardrops
06. Perfect Dust
07. Nineteen Eighty
08. All My Friends Are Here
09. Spirits, Ghosts And Outlaws
10. Falling Stars
11. Waiting
12. Here The Blue River
13. Yesterday's Yesterday
******************************
Total playing time: 46:28

(IMG:http://metalarea.org/images/youtube.png)


Technical info
(IMG:http://metalarea.org/images/spectrogram/2020_May/676c0d0f5f5de909b4af9f296b17c65e.png)
Input File: 02 - Big Distortion.mp3
Channels : 2
Sample Rate : 44100
Precision : 16-bit
Duration : 00:04:13.93 = 11198181 samples = 19044.5 CDDA sectors
File Size : 10.2M
Bit Rate : 321k
Sample Encoding: MPEG audio (layer I, II or III)
Comments :
Title=Big Distortion
Artist=Joe Satriani
Album=Shapeshifting
Tracknumber=2
Year=2020
Genre=Rock
Discnumber=1



Register


Go to the top of the page
  Insert nick Quick quote
+Quote Post
 
Start new topic
Replies (1 - 6)
post May 8 2020, 06:35:19
Post #2

my church is black
*********
Group: Металариец
Posts: 957
Releases: 3
On Forums: 2 years 11 months
Thanks: 607 time(s)
Cape Verde


вот из всех гитарных дрoчeров (окромя Ведра, конечно) Сатриани всегда больше всех нравился - видно, что у чувака "паслушайте какой я акуены" - не первоцель. альбом приятненький, ненапряжный, на пару раз прогнал.
Go to the top of the page
  Insert nick Quick quote
+Quote Post
post May 11 2020, 11:39:26
Post #3

Ёлд ХеллоВяйне
Group Icon
Group: V.I.P
Posts: 29,764
Releases: 137
From: Питер
On Forums: 13 years 7 months
Thanks: 17663 time(s)
Russian Federation


QUOTE(Krosis @ 8th May 2020 - 08:35:19) *
"паслушайте какой я акуены" - не первоцель

QUOTE(Krosis @ 8th May 2020 - 08:35:19) *
окромя Ведра, конечно


Смешно.


Thanks:
Go to the top of the page
  Insert nick Quick quote
+Quote Post
post May 12 2020, 06:33:28
Post #4

my church is black
*********
Group: Металариец
Posts: 957
Releases: 3
On Forums: 2 years 11 months
Thanks: 607 time(s)
Cape Verde


ЦИТАТА(Old Vyaine @ 11th May 2020 - 15:39:26) *
Смешно.

это про Сатриани сказано было, читай внимательней
Go to the top of the page
  Insert nick Quick quote
+Quote Post
post May 12 2020, 06:47:24
Post #5

Ёлд ХеллоВяйне
Group Icon
Group: V.I.P
Posts: 29,764
Releases: 137
From: Питер
On Forums: 13 years 7 months
Thanks: 17663 time(s)
Russian Federation


Было сказано, что Ведро якобы не такой.
Go to the top of the page
  Insert nick Quick quote
+Quote Post
post May 12 2020, 07:19:58
Post #6

my church is black
*********
Group: Металариец
Posts: 957
Releases: 3
On Forums: 2 years 11 months
Thanks: 607 time(s)
Cape Verde


Сатриани больше всех нравился, кроме Ведра. (ведро нравится больше). что непонятного?
Go to the top of the page
  Insert nick Quick quote
+Quote Post
post May 12 2020, 08:46:01
Post #7

Ёлд ХеллоВяйне
Group Icon
Group: V.I.P
Posts: 29,764
Releases: 137
From: Питер
On Forums: 13 years 7 months
Thanks: 17663 time(s)
Russian Federation


Непонятно ты фразу изначально построил.
Go to the top of the page
  Insert nick Quick quote
+Quote Post

Reply to this topicStart new topic
1 User(s) are reading this topic (1 Guests and 0 Anonymous Users)
0 Members:

 



- Lo-Fi Version Support form
Copyrights and abuse reports form
Time is now: 3rd June 2020 - 01:55:15