Welcome Guest ( Log In | Register )

> И неформату есть предел.

Рэп/хип-хоп/шансон/поп удаляются. Для них есть свои порталы.

> Lysergene - Critical Mass (2008), Industrial/Ebm/Power Electronics
post May 6 2020, 15:17:55
Post #1

слушаю тишину
**************
Group: Металариец
Posts: 2,321
Releases: 46
On Forums: 2 years 4 months
Thanks: 2287 time(s)
Russian Federation


(IMG:https://metalarea.org/images/audiocovers/2020_May/acov_tid337329_thumb.jpg)

*Artist: Lysergene
*Album: Critical Mass
*Year: 2008
*Genre: Industrial/Ebm/Power Electronics
*Country: United Kingdom (IMG:https://metalarea.org/forum/style_images/flags/United%20Kingdom.png)
*Format: mp3@CBR320kbps
*Size: 168MB

Tracklist:
1. Critical Mass 7:21
2. Twisted And Evil 9:35
3. Monolith 5:59
4. L.S.D. 10:40
5. Neon Flow 7:27
6. Network TV 6:43
7. The Groke 11:18
8. The Becoming 6:03
9. Shock Treatment 9:23
******************************
Total playing time: 1:14:29

Extended info
Music By – Gordon Bicknell (Esoteric)



Technical info
(IMG:https://metalarea.org/images/spectrogram/2020_May/28ebcd713fcc5dd80711b9731f38de29.png)
Input File: 02. Twisted And Evil.mp3
Channels : 2
Sample Rate : 44100
Precision : 16-bit
Duration : 00:09:35.15 = 25363939 samples = 43136 CDDA sectors
File Size : 23.0M
Bit Rate : 320k
Sample Encoding: MPEG audio (layer I, II or III)
Comments :
Title=Twisted And Evil
Artist=Lysergene
Album=Critical Mass
Tracknumber=2/9
Year=2008
Genre=Electronic, Industrial



Register


Go to the top of the page
  Insert nick Quick quote
+Quote Post
 
Start new topic
Replies (1 - 5)
post May 7 2020, 09:26:10
Post #2

Три Литра
***
Group: Завсегдатай
Posts: 229
Releases: 8
From: Санкт-Петербург
On Forums: 14 years 1 week
Thanks: 784 time(s)
Russian Federation


Очень хороший альбом, давно имеется. Если кто не слышал, то рекомендую заценить этот проект гитариста/клавишника Esoteric.


Go to the top of the page
  Insert nick Quick quote
+Quote Post
post May 7 2020, 10:06:29
Post #3
BAN
Banned till
May 30 2020, 18:54:22



Отлично, то что на видео - понравилось


Thanks:
Go to the top of the page
  Insert nick Quick quote
+Quote Post
post May 7 2020, 17:00:01
Post #4

Group: Подсевший
Posts: 29
Releases: 0
From: Korolev, Zavokzalka
On Forums: 11 years 9 months
Thanks: 38 time(s)
Antarctica


Альбом шикарный
Go to the top of the page
  Insert nick Quick quote
+Quote Post
post May 10 2020, 08:06:31
Post #5

Семь Литров
*******
Group: Металариец
Posts: 781
Releases: 0
On Forums: 12 years 7 months
Thanks: 335 time(s)
Belarus


музыка заходит на одном дыхании. на можно послушать еще интересные работы лейбла Phantom Hertz Recordings
p.s mirotvorets как всегда на высоте (IMG:style_emoticons/default/9.gif) (IMG:style_emoticons/default/9.gif) (IMG:style_emoticons/default/9.gif)


Thanks:
Go to the top of the page
  Insert nick Quick quote
+Quote Post
post May 10 2020, 09:00:42
Post #6
BAN
Banned till
Jul 17 2020, 21:47:37



Замечательный пост индастриал, да.
Go to the top of the page
  Insert nick Quick quote
+Quote Post

Reply to this topicStart new topic
1 User(s) are reading this topic (1 Guests and 0 Anonymous Users)
0 Members:

 



- Lo-Fi Version Support form
Copyrights and abuse reports form
Time is now: 28th May 2020 - 09:12:51