Welcome Guest ( Log In | Register )

> И неформату есть предел.

Рэп/хип-хоп/шансон/поп удаляются. Для них есть свои порталы.

> Erythrite Throne - In The Age Of Medieval Sorcery (2020), Dungeon Synth
post May 7 2020, 15:09:56
Post #1

Правь статус, ####!111
**************
Group: Металариец
Posts: 2,768
Releases: 2472
From: Одесса
On Forums: 11 years 11 months
Thanks: 23454 time(s)
Ukraine


(IMG:http://metalarea.org/images/audiocovers/2020_May/acov_tid337370_thumb.jpg)

*Artist: Erythrite Throne
*Album: In The Age Of Medieval Sorcery
*Year: 2020
*Genre: Dungeon Synth
*Country: Canada (IMG:http://metalarea.org/forum/style_images/flags/Canada.png)
*Format: mp3@CBR320kbps
*Size: 110MB

Tracklist:
1. As We Read from the Tomes of Night
2. Casting Forbidden Spells
3. A Hymn to Uldor
4. Standing at the Gates of Mourning
5. Traversing Desolate Crypts
6. Barbaric Chants
7. The Lichs Cauldron
8. Awakened from the Dreamless Sleep
9. In Forests of Dusk
10. Beheading the Great Wizard
******************************
Total playing time: 46:25



Technical info
(IMG:http://metalarea.org/images/spectrogram/2020_May/b39ab7523675d2e06f69a1750cf449c1.png)
Input File: 7 - The Lich's Cauldron.mp3
Channels : 2
Sample Rate : 44100
Precision : 16-bit
Duration : 00:03:40.72 = 9733884 samples = 16554.2 CDDA sectors
File Size : 8.90M
Bit Rate : 323k
Sample Encoding: MPEG audio (layer I, II or III)
Comments :
Title=The Lich's Cauldron
Artist=Erythrite Throne
Album=In the Age of Medieval Sorcery
Tracknumber=7
Year=2020
Genre=Black/Doom Metal/Ambient



Register


This post has been edited by Borderline1991: May 9 2020, 12:22:57


Go to the top of the page
  Insert nick Quick quote
+Quote Post
 
Start new topic
Replies (1 - 3)
post May 8 2020, 13:43:39
Post #2

Group: Подсевший
Posts: 38
Releases: 0
On Forums: 9 months 1 day
Thanks: 14 time(s)
Russian Federation


Ни блэка, ни дума не обнаружено, сплошной данжн синт.
Причем это уже 4 полноформат за неполные полгода.
Go to the top of the page
  Insert nick Quick quote
+Quote Post
post May 8 2020, 13:58:39
Post #3

Правь статус, ####!111
**************
Group: Металариец
Posts: 46,375
Releases: 716
On Forums: 10 years 11 months
Thanks: 38888 time(s)
Russian Federation


И надо сказать, данжн синт у него выходит хорошечный.
Go to the top of the page
  Insert nick Quick quote
+Quote Post
post Yesterday, 11:37:33
Post #4

Два Литра
**
Group: Завсегдатай
Posts: 174
Releases: 0
From: Чуркестан
On Forums: 12 years 8 months
Thanks: 16 time(s)
Uzbekistan


Это реально записано на осыпающуюся (№3 2:38) ленту с АЧХ до 8кГц? Или сейчас такой тренд/плагин наподобие "треск винила"?
Go to the top of the page
  Insert nick Quick quote
+Quote Post

Reply to this topicStart new topic
2 User(s) are reading this topic (2 Guests and 0 Anonymous Users)
0 Members:

 



- Lo-Fi Version Support form
Copyrights and abuse reports form
Time is now: 25th May 2020 - 03:09:31