Welcome Guest ( Log In | Register )

> И неформату есть предел.

Рэп/хип-хоп/шансон/поп удаляются. Для них есть свои порталы.

> Suicide Commando - Forest Of The Impaled (2017), Ebm/Electro/Industrial
post May 9 2020, 12:51:46
Post #1

Три Литра
***
Group: Завсегдатай
Posts: 202
Releases: 52
On Forums: 3 years 9 months
Thanks: 1196 time(s)
United States


(IMG:http://metalarea.org/images/audiocovers/2020_May/acov_tid337447_thumb.jpg)

*Artist: Suicide Commando
*Album: Forest Of The Impaled
*Year: 2017
*Genre: Ebm/Electro/Industrial
*Country: Belgium (IMG:http://metalarea.org/forum/style_images/flags/Belgium.png)
*Format: mp3@CBR320kbps
*Size: 449MB

Tracklist:
Forest Of The Impaled (CD 1)
1 The Gates Of Oblivion
2 My New Christ
3 Too Far Gone
4 Death Lies Waiting
5 The Pain That You Like
6 Poison Tree
7 The Devil
8 Chasm Of Emptiness
9 Crack Up
10 Schiz[o]topia
11 We Are Transitory

Remix CD (CD 2)
1 Death Lies Waiting (Nigen Remix)
2 The Pain That You Like (Pride And Fall Remix)
3 Chasm Of Emptiness (The Psychic Force Remix)
4 My New Christ (Life Cried Remix)
5 The Pain That You Like (Orange Sector Remix)
6 Too Far Gone (Plastic Noise Experience Remix)
7 Chasm Of Emptiness (Mildreda Remix)
8 My New Christ (Reaxion Guerrilla Remix)
9 Death Lies Waiting ([:SITD:] Remix)
10 My New Christ (2nd Face Remix)
11 Katarina Misskey - God Is In The Rain

Tribute CD (CD 3)
1 Acylum - Come To Me
2 Reactor 7x - Love Breeds Suicide
3 C-Lekktor Vs. Circuito Cerrado - Desire
4 Short And Crunch - Monster
5 Alien Vampires - Cause Of Death: Suicide
6 Empusa - Sheer Horror
7 ES23 - Conspiracy With The Devil
8 Mildreda - Fate
9 Nano Infect - Hellraiser
10 XSRY - Time
11 Aim And Execute - Actions Of The Mind
12 Bodyharvest - Godsend
13 Stahlnebel & Black Selket - Sterbehilfe
14 Yu feat. Blackjack O'Hare - See You In Hell

The Devil Bonus MCD (CD 4)
1 The Devil (Satanismus Remix)
2 Cold Therapy - The Devil
3 The Devil (Instrumental)
4 Sektor O - The Devil
5 The Devil (1991 Version)
******************************
Total playing time: 3:31:24

(IMG:http://metalarea.org/images/youtube.png)

Technical info
(IMG:http://metalarea.org/images/spectrogram/2020_May/e59a1b9d6acf3667c670929e47ec4fad.png)
Input File: 02 My New Christ.mp3
Channels : 2
Sample Rate : 44100
Precision : 16-bit
Duration : 00:04:36.37 = 12187785 samples = 20727.5 CDDA sectors
File Size : 11.2M
Bit Rate : 323k
Sample Encoding: MPEG audio (layer I, II or III)
Comments :
Title=My New Christ
Artist=Suicide Commando
Album=Forest of the Impaled (Deluxe Edition)
Tracknumber=02/41
Year=2017
Genre=Electronic
Discnumber=1/4



Register


Go to the top of the page
  Insert nick Quick quote
+Quote Post
 
Start new topic
Replies (1 - 1)
post Yesterday, 22:40:30
Post #2

mArdAk666
**********
Group: Металариец
Posts: 1,107
Releases: 0
From: Deutschland
On Forums: 10 years 1 week
Thanks: 290 time(s)
Germany


залейте на .ру обменник, плиз!
Go to the top of the page
  Insert nick Quick quote
+Quote Post

Reply to this topicStart new topic
1 User(s) are reading this topic (1 Guests and 0 Anonymous Users)
0 Members:

 



- Lo-Fi Version Support form
Copyrights and abuse reports form
Time is now: 31st May 2020 - 04:27:59