Welcome Guest ( Log In | Register )

> И неформату есть предел.

Рэп/хип-хоп/шансон/поп удаляются. Для них есть свои порталы.

 
Reply to this topicStart new topic
> :wumpscut: - Bunkertor 7 (2006), Dark Electro (D7)
post May 9 2020, 13:01:49
Post #1

Три Литра
***
Group: Завсегдатай
Posts: 202
Releases: 52
On Forums: 3 years 10 months
Thanks: 1196 time(s)
United States


(IMG:http://metalarea.org/images/audiocovers/2020_May/acov_tid337449_thumb.jpg)

*Artist: :wumpscut:
*Album: Bunkertor 7
*Year: 2006
*Genre: Dark Electro
*Country: Germany (IMG:http://metalarea.org/forum/style_images/flags/Germany.png)
*Format: mp3@CBR320kbps
*Size: 151MB

Tracklist:
1 Open Gate
2 Torn Skin
3 Capital Punishment
4 Die In Winter (Original Version)
5 Bunkertor 7 (German Texture)
6 Thorns (Album Version)
7 Mortal Highway
8 Bunkertor 7 (Reprised)
9 Dying Culture (Album Version)
10 Corroded Breed
11 Tell Me Why (Album Version)
12 Close Gate
13 Capital Punishment (Early Take)
14 Corroded Breed (Early Take)
15 Bunkertor 7 (Early Take)
******************************
Total playing time: 1:06:30

(IMG:http://metalarea.org/images/youtube.png)

Technical info
(IMG:http://metalarea.org/images/spectrogram/2020_May/b203d86878c3134b54471a3eeaca1f85.png)
Input File: 02. Torn Skin.mp3
Channels : 2
Sample Rate : 44100
Precision : 16-bit
Duration : 00:05:24.17 = 14296073 samples = 24313 CDDA sectors
File Size : 13.0M
Bit Rate : 322k
Sample Encoding: MPEG audio (layer I, II or III)
Comments :
Title=Torn Skin
Artist=:wumpscut:
Album=Bunkertor 7 (11 Years Anniversary Edition)
Tracknumber=02/15
Year=2006
Genre=12



Register


Go to the top of the page
  Insert nick Quick quote
+Quote Post

Reply to this topicStart new topic
1 User(s) are reading this topic (1 Guests and 0 Anonymous Users)
0 Members:

 



- Lo-Fi Version Support form
Copyrights and abuse reports form
Time is now: 3rd June 2020 - 00:57:06