Welcome Guest ( Log In | Register )

> И неформату есть предел.

Рэп/хип-хоп/шансон/поп удаляются. Для них есть свои порталы.

 
Reply to this topicStart new topic
> Arthuros - Ithildin (2019), Dungeon Synth
post May 9 2020, 13:12:49
Post #1

Три Литра
***
Group: Завсегдатай
Posts: 202
Releases: 52
On Forums: 3 years 10 months
Thanks: 1196 time(s)
United States


(IMG:http://metalarea.org/images/audiocovers/2020_May/acov_tid337450_thumb.jpg)

*Artist: Arthuros
*Album: Ithildin
*Year: 2019
*Genre: Dungeon Synth
*Country: Greece (IMG:http://metalarea.org/forum/style_images/flags/Greece.png)
*Format: mp3@CBR320kbps
*Size: 75MB

Tracklist:
1 Gaze Of The Light Tower​.​.​.​.​.
2 My Journey To The Light Realm
3 As I Pass Through The Moongate
4 The Vision Of The Northern Star
5 I , The Stars
6 Olympos
7 Fled Towards Paths Unknown.....
******************************
Total playing time: 31:25



Technical info
(IMG:http://metalarea.org/images/spectrogram/2020_May/087adc5fbe11597d46444f792524c307.png)
Input File: 01 Gaze Of The Light Tower......mp3
Channels : 2
Sample Rate : 44100
Precision : 16-bit
Duration : 00:01:09.78 = 3077298 samples = 5233.5 CDDA sectors
File Size : 2.92M
Bit Rate : 335k
Sample Encoding: MPEG audio (layer I, II or III)
Comments :
Title=Gaze Of The Light Tower.....
Artist=ARTHUROS
Album=Ithildin
Tracknumber=1
Year=2019
Genre=Dungeon Synth



Register


Thanks:
Go to the top of the page
  Insert nick Quick quote
+Quote Post

Reply to this topicStart new topic
1 User(s) are reading this topic (1 Guests and 0 Anonymous Users)
0 Members:

 



- Lo-Fi Version Support form
Copyrights and abuse reports form
Time is now: 3rd June 2020 - 01:31:02