Welcome Guest ( Log In | Register )

> И неформату есть предел.

Рэп/хип-хоп/шансон/поп удаляются. Для них есть свои порталы.

 
Reply to this topicStart new topic
> Arthuros - Kosmos (2020), Dungeon Synth
post May 9 2020, 13:20:31
Post #1

Три Литра
***
Group: Завсегдатай
Posts: 202
Releases: 52
On Forums: 3 years 9 months
Thanks: 1196 time(s)
United States


(IMG:http://metalarea.org/images/audiocovers/2020_May/acov_tid337453_thumb.jpg)

*Artist: Arthuros
*Album: Kosmos
*Year: 2020
*Genre: Dungeon Synth
*Country: Greece (IMG:http://metalarea.org/forum/style_images/flags/Greece.png)
*Format: mp3@CBR320kbps
*Size: 90MB

Tracklist:
1. With Apollonian Might
2. Observer Of The Kosmos, Part I
3. With Arthurian Pride
4. Observer Of The Kosmos, Part II
5. Inside A Star's Womb
6. Phos (Φως)
7. A Sword Dipped In Star's Blood
8. Penetrating Through The Void...
******************************
Total playing time: 37:57



Technical info
(IMG:http://metalarea.org/images/spectrogram/2020_May/435c022bd321bbc82dad2eab6453a434.png)
Input File: 05 - Inside a Star's Womb.mp3
Channels : 2
Sample Rate : 44100
Precision : 16-bit
Duration : 00:03:53.55 = 10299555 samples = 17516.2 CDDA sectors
File Size : 9.79M
Bit Rate : 335k
Sample Encoding: MPEG audio (layer I, II or III)
Comments :
Title=Inside a Star's Womb
Artist=Arthuros
Album=Kosmos
Tracknumber=5
Year=2020
Genre=Dungeon Synth



Register


Thanks:
Go to the top of the page
  Insert nick Quick quote
+Quote Post

Reply to this topicStart new topic
1 User(s) are reading this topic (1 Guests and 0 Anonymous Users)
0 Members:

 



- Lo-Fi Version Support form
Copyrights and abuse reports form
Time is now: 31st May 2020 - 04:25:02