Welcome Guest ( Log In | Register )

> И неформату есть предел.

Рэп/хип-хоп/шансон/поп удаляются. Для них есть свои порталы.

 
Reply to this topicStart new topic
> A Field Of Black Orchids - The Golden Age Ov Saturn (2010), Experimental Industrial
post May 9 2020, 13:30:55
Post #1

Три Литра
***
Group: Завсегдатай
Posts: 202
Releases: 52
On Forums: 3 years 9 months
Thanks: 1193 time(s)
United States


(IMG:http://metalarea.org/images/audiocovers/2020_May/acov_tid337455_thumb.jpg)

*Artist: A Field Of Black Orchids
*Album: The Golden Age Ov Saturn
*Year: 2010
*Genre: Experimental Industrial
*Country: United States (IMG:http://metalarea.org/forum/style_images/flags/United%20States.png)
*Format: mp3@CBR320kbps
*Size: 148MB

Tracklist:
1. Blood Pact
2. AZiph
3. Psi le Cibe
4. Dismember Placement
5. Neu RA l
6. EYE core I.D.
7. Viscoelastic Servitor
8. Liquid Viral Isolator [WATER]
9. SlavE
10. The Golden Age ov Saturn
11. EYE core I.D. -redux (Worms of the Earth)
******************************
Total playing time: 1:02:59




Technical info
(IMG:http://metalarea.org/images/spectrogram/2020_May/c0a39c8d1dc153f5ea39acb603272bef.png)
Input File: 09 SlavE.mp3
Channels : 2
Sample Rate : 44100
Precision : 16-bit
Duration : 00:05:50.09 = 15438925 samples = 26256.7 CDDA sectors
File Size : 14.3M
Bit Rate : 327k
Sample Encoding: MPEG audio (layer I, II or III)
Comments :
Title=SlavE
Artist=A Field Of Black Orchids
Album=The Golden Age Ov Saturn
Tracknumber=9
Year=2010
Genre=Other



Register


Go to the top of the page
  Insert nick Quick quote
+Quote Post

Reply to this topicStart new topic
1 User(s) are reading this topic (1 Guests and 0 Anonymous Users)
0 Members:

 



- Lo-Fi Version Support form
Copyrights and abuse reports form
Time is now: 28th May 2020 - 08:21:19