Welcome Guest ( Log In | Register )

> И неформату есть предел.

Рэп/хип-хоп/шансон/поп удаляются. Для них есть свои порталы.

> Thighpaulsandra - Practical Electronics With Thighpaulsandra (2019), Experimental/Dark Ambient/Noise/Post-Industrial
post May 9 2020, 19:31:21
Post #1

слушаю тишину
**************
Group: Металариец
Posts: 2,315
Releases: 46
On Forums: 2 years 4 months
Thanks: 2276 time(s)
Russian Federation


(IMG:https://metalarea.org/images/audiocovers/2020_May/acov_tid337470_thumb.jpeg)

*Artist: Thighpaulsandra
*Album: Practical Electronics With Thighpaulsandra
*Year: 2019
*Genre: Experimental/Dark Ambient/Noise/Post-Industrial
*Country: United Kingdom (IMG:https://metalarea.org/forum/style_images/flags/United%20Kingdom.png)
*Format: mp3@CBR320kbps
*Size: 104MB

Tracklist:
1.Brown Pillows 13:15
2.Hamza 10:26
3.Helen Is Screaming 12:30
4.The Goat Owl 09:41
******************************
Total playing time: 45:52



Extended info


Technical info
(IMG:https://metalarea.org/images/spectrogram/2020_May/c4a9ca6bdbde96f07d1d7a67486010f7.png)
Input File: 02. Hamza.mp3
Channels : 2
Sample Rate : 44100
Precision : 16-bit
Duration : 00:10:26.11 = 27611627 samples = 46958.5 CDDA sectors
File Size : 25.0M
Bit Rate : 320k
Sample Encoding: MPEG audio (layer I, II or III)
Comments :
Title=Hamza
Artist=Thighpaulsandra
Album=Practical Electronics
Tracknumber=02/4
Year=2019
Genre=Experimental
Discnumber=1/1



Register


Go to the top of the page
  Insert nick Quick quote
+Quote Post
 
Start new topic
Replies (1 - 2)
post May 10 2020, 12:54:50
Post #2

Три Литра
***
Group: Завсегдатай
Posts: 296
Releases: 0
On Forums: 13 years 3 weeks
Thanks: 98 time(s)
Russian Federation


Ещё на какой-нибудь файлообменник, если возможно...
Go to the top of the page
  Insert nick Quick quote
+Quote Post
post May 10 2020, 17:47:14
Post #3

слушаю тишину
**************
Group: Металариец
Posts: 2,315
Releases: 46
On Forums: 2 years 4 months
Thanks: 2276 time(s)
Russian Federation


Register


Go to the top of the page
  Insert nick Quick quote
+Quote Post

Reply to this topicStart new topic
2 User(s) are reading this topic (2 Guests and 0 Anonymous Users)
0 Members:

 



- Lo-Fi Version Support form
Copyrights and abuse reports form
Time is now: 25th May 2020 - 03:56:44