Welcome Guest ( Log In | Register )

> Releases Upload / Добавление релизов

Добавить релиз тут / Click here to add release
Рекомендованные обменники / Recommended file shares

> Falhena - Insaniam Convertunt (2020), Black Metal
post May 10 2020, 16:36:06
Post #1

Правь статус, ####!111
**************
Group: Металариец
Posts: 2,922
Releases: 2617
From: Одесса
On Forums: 12 years 1 month
Thanks: 25163 time(s)
Ukraine


(IMG:http://metalarea.org/images/audiocovers/2020_May/acov_tid337484_thumb.jpg)

*Artist: Falhena
*Album: Insaniam Convertunt
*Year: 2020
*Genre: Black Metal
*Country: Italy (IMG:http://metalarea.org/forum/style_images/flags/Italy.png)
*Format: mp3@CBR320kbps
*Size: 80MB

Tracklist:
1. Voices Are Whispering 05:22
2. The Cirlce 05:04
3. Mother Darkness 06:27
4. Memories 04:31
5. Insaniam Convertunt 04:55
6. Zombification 01:38
7. Ritorneremo 05:54
******************************
Total playing time: 33:51



Technical info
(IMG:http://metalarea.org/images/spectrogram/2020_May/78fd4f0196c00d73b8e917489faf42dc.png)
Input File: 03. Mother Darkness.mp3
Channels : 2
Sample Rate : 44100
Precision : 16-bit
Duration : 00:06:27.42 = 17085222 samples = 29056.5 CDDA sectors
File Size : 15.6M
Bit Rate : 322k
Sample Encoding: MPEG audio (layer I, II or III)
Comments :
Title=Mother Darkness
Artist=Falhena
Album=Insaniam Convertunt
Tracknumber=3
Year=2020
Genre=138



Register


Go to the top of the page
  Insert nick Quick quote
+Quote Post
 
Start new topic
Replies (1 - 2)
post May 22 2020, 17:37:58
Post #2

Правь статус, ####!111
**************
Group: Металариец
Posts: 2,987
Releases: 0
From: MoscoW
On Forums: 13 years 7 months
Thanks: 2297 time(s)
Russian Federation


Отличная долбёжка!!!
Новый проект ADVERSAM!
(IMG:style_emoticons/default/true_black.gif)
Go to the top of the page
  Insert nick Quick quote
+Quote Post
post Jun 29 2020, 23:04:13
Post #3

Правь статус, ####!111
**************
Group: Металариец
Posts: 4,511
Releases: 1267
From: Brazil
On Forums: 8 years 5 months
Thanks: 47491 time(s)
Brazil


Register

mp3@CBR320kbps


Thanks:
(1) varlam4,
Go to the top of the page
  Insert nick Quick quote
+Quote Post

Reply to this topicStart new topic
2 User(s) are reading this topic (2 Guests and 0 Anonymous Users)
0 Members:

 



- Lo-Fi Version Support form
Copyrights and abuse reports form
Time is now: 9th July 2020 - 08:57:25