Welcome Guest ( Log In | Register )

> И неформату есть предел.

Рэп/хип-хоп/шансон/поп удаляются. Для них есть свои порталы.

> Misanthrofeel - Goodbye Habitual World [ep] (2020), Ambient/Post Rock
post May 10 2020, 22:45:02
Post #1

Шесть Литров
******
Group: Металариец
Posts: 551
Releases: 11
From: Russia
On Forums: 10 years 11 months
Thanks: 439 time(s)
Russian Federation


(IMG:http://metalarea.org/images/audiocovers/2020_May/acov_tid337499_thumb.jpg)

*Artist: Misanthrofeel
*Album: Goodbye, Habitual World [ep]
*Year: 2020
*Genre: Ambient/Post Rock
*Country: Russian Federation (IMG:http://metalarea.org/forum/style_images/flags/Russian%20Federation.png)
*Format: mp3@CBR320kbps
*Size: 62MB

Tracklist:
01.Serenity
02. Conversion
03. Goodbye, habitual world
04. Negation
05. Indignation
06. Recipience
******************************
Total playing time: 27:10

vk.com



Extended info
Новый альбом проекта Misanthrofeel в музыкальном плане выдержан в стиле эмбиент/атмосферный психоделический пост-рок. Этот материал более лёгкий и простой для восприятия, чем предыдущие релизы, но со своей атмосферой.
Гитарные партии не везде получились ровными, но это живой звук, практически без обработки, сыграно всё за один дубль. (IMG:style_emoticons/default/smile1.gif)

It's a new EP from "one man band" from Russia. The stuff made in Ambient/Post Rock/Psychedelic genre.


Technical info
(IMG:http://metalarea.org/images/spectrogram/2020_May/b3003be0c5be9dd5a2c094b2e3fd6106.png)
Input File: 02. Conversion.mp3
Channels : 2
Sample Rate : 44100
Precision : 16-bit
Duration : 00:03:54.76 = 10353004 samples = 17607.1 CDDA sectors
File Size : 9.38M
Bit Rate : 320k
Sample Encoding: MPEG audio (layer I, II or III)
Comments :
Title=Conversion
Artist=Misanthrofeel
Album=Goodbye, habitual world
Tracknumber=02
Year=2020
Genre=Ambient/Post Rock



Register


Go to the top of the page
  Insert nick Quick quote
+Quote Post
 
Start new topic
Replies (1 - 5)
post May 19 2020, 10:58:17
Post #2

Шесть Литров
******
Group: Металариец
Posts: 551
Releases: 11
From: Russia
On Forums: 10 years 11 months
Thanks: 439 time(s)
Russian Federation




Видеоряд к первому треку из релиза.
Go to the top of the page
  Insert nick Quick quote
+Quote Post
post May 19 2020, 12:24:56
Post #3

Ледоруб
**************
Group: Металариец
Posts: 25,456
Releases: 0
From: Санкт-Петербург
On Forums: 10 years 8 months
Thanks: 8860 time(s)
Russian Federation


Надо попробовать Visionare.
Go to the top of the page
  Insert nick Quick quote
+Quote Post
post May 19 2020, 12:29:43
Post #4

MISANTHROPHILIAC 666
*******
Group: Металариец
Posts: 723
Releases: 1
From: Екатеринбург
On Forums: 12 years 1 day
Thanks: 439 time(s)
Russian Federation


По сути, весь ЕП = одна телега, разбитая на части [для понимания замысла {стадий отчуждения} автора] 666
Но! [если в контексте пластинки] Превью {Serenity} [является понятным {как начальная часть последующих мыслей}] для ознакомления с ЕП выбрано не удачно = просто музыка для йоги [а по замыслу = совсем нет] 666

А так ничо = проникся [пусть и на троечку *после двукратного прослушивания = добавлю "с ЖЫРНЫМ +"* {И.М.Х.О.}] 666

З.Ы. Гипотетическиеразмышления = нашел бы там кто-то [я там-то понятно найду], в ЭТОМ ЕП, что-то если:
1. подбухнуть;
2. покурить;
3. нюхнуть;
4. съесть, глотнуть, лизнуть? 666

5. [ну вот да, не добавил] впрыснуть? 666
Go to the top of the page
  Insert nick Quick quote
+Quote Post
post May 19 2020, 15:55:27
Post #5

Шесть Литров
******
Group: Металариец
Posts: 551
Releases: 11
From: Russia
On Forums: 10 years 11 months
Thanks: 439 time(s)
Russian Federation


ЦИТАТА(BERZERK @ May 19 2020, 14:29:43) *
З.Ы. Гипотетическиеразмышления = нашел бы там кто-то [я там-то понятно найду], в ЭТОМ ЕП, что-то если:
1. подбухнуть;
2. покурить;
3. нюхнуть;
4. съесть, глотнуть, лизнуть? 666

5. [ну вот да, не добавил] впрыснуть? 666


Интересное мнение. Значит, мой психоделический замысел удался. (IMG:style_emoticons/default/smile1.gif)
Go to the top of the page
  Insert nick Quick quote
+Quote Post
post May 23 2020, 07:12:22
Post #6

Шесть Литров
******
Group: Металариец
Posts: 551
Releases: 11
From: Russia
On Forums: 10 years 11 months
Thanks: 439 time(s)
Russian Federation


Новое видео на заглавный трек из этого ЕР.

The new video from the EP.

Go to the top of the page
  Insert nick Quick quote
+Quote Post

Reply to this topicStart new topic
1 User(s) are reading this topic (1 Guests and 0 Anonymous Users)
0 Members:

 



- Lo-Fi Version Support form
Copyrights and abuse reports form
Time is now: 31st May 2020 - 04:26:41