Welcome Guest ( Log In | Register )

> Releases Upload / Добавление релизов

Добавить релиз тут / Click here to add release
Рекомендованные обменники / Recommended file shares

> Mørkt Tre - Necrofolk [ep] (2019), Black Metal
post May 11 2020, 10:07:17
Post #1

Четыре Литра
****
Group: Металариец
Posts: 331
Releases: 22
From: France
On Forums: 10 years 11 months
Thanks: 705 time(s)
France


(IMG:http://metalarea.org/images/audiocovers/2020_May/acov_tid337503_thumb.jpg)

*Artist: Mørkt Tre
*Album: Necrofolk [ep]
*Year: 2019
*Genre: Black Metal
*Country: Ukraine (IMG:http://metalarea.org/forum/style_images/flags/Ukraine.png)
*Format: mp3@CBR320kbps
*Size: 52MB

Tracklist:
1. Блуд 00:52
2. Порожніми очима 05:55
3. Мертвий космос 06:43
4. Проща 03:17
5. Huta Laura (Furia cover) 05:49
******************************
Total playing time: 22:36



Extended info
Files come from Bandcamp

Encyclopedia Metallum


Technical info
(IMG:http://metalarea.org/images/spectrogram/2020_May/a22c74324d94cad204b38fdd2c209a72.png)
Input File: 01 - Блуд.mp3
Channels : 2
Sample Rate : 44100
Precision : 16-bit
Duration : 00:00:52.09 = 2297345 samples = 3907.05 CDDA sectors
File Size : 2.19M
Bit Rate : 337k
Sample Encoding: MPEG audio (layer I, II or III)
Comments :
Title=Блуд
Artist=Mørkt Tre
Album=Necrofolk (EP)
Tracknumber=01
Year=2019



Register


Go to the top of the page
  Insert nick Quick quote
+Quote Post
 
Start new topic
Replies (1 - 4)
post Jun 29 2020, 23:38:52
Post #2

Правь статус, ####!111
**************
Group: Металариец
Posts: 4,511
Releases: 1267
From: Brazil
On Forums: 8 years 5 months
Thanks: 47491 time(s)
Brazil


Register

mp3@CBR320kbps
Go to the top of the page
  Insert nick Quick quote
+Quote Post
post Jun 30 2020, 07:37:07
Post #3

Четыре Литра
****
Group: Металариец
Posts: 381
Releases: 0
On Forums: 7 years 7 months
Thanks: 489 time(s)
Ukraine


Очень достойный проект.
Go to the top of the page
  Insert nick Quick quote
+Quote Post
post Jun 30 2020, 07:42:44
Post #4

Правь статус, ####!111
**************
Group: Металариец
Posts: 2,599
Releases: 12
On Forums: 12 years 11 months
Thanks: 1483 time(s)
Russian Federation


Grudom не получился. Всегда говорил, что акромя До Скону жовтоблакитные ниче не могут.
Go to the top of the page
  Insert nick Quick quote
+Quote Post
post Jun 30 2020, 09:06:57
Post #5

Group: Подсевший
Posts: 46
Releases: 0
On Forums: 3 years 11 months
Thanks: 18 time(s)
Russian Federation


ЦИТАТА(Qliphoth @ Jun 30 2020, 11:42:44) *
Grudom не получился.
А что, должен был? Тут же по названию альбома явная отсылка на кого ориентировались (а для тех, кто в танке, ещё и кавер сделали на ориентир).
Go to the top of the page
  Insert nick Quick quote
+Quote Post

Reply to this topicStart new topic
2 User(s) are reading this topic (2 Guests and 0 Anonymous Users)
0 Members:

 



- Lo-Fi Version Support form
Copyrights and abuse reports form
Time is now: 9th July 2020 - 09:56:31