Welcome Guest ( Log In | Register )

> Releases Upload / Добавление релизов

Добавить релиз тут / Click here to add release
Рекомендованные обменники / Recommended file shares

> Wolves Den - Miserere (2020), Melodic Black/Death Metal
post May 14 2020, 14:54:36
Post #1

Правь статус, ####!111
**************
Group: Металариец
Posts: 21,845
Releases: 15058
From: Г.Харьков
On Forums: 8 years 2 weeks
Thanks: 272807 time(s)
Unknown


(IMG:https://metalarea.org/images/audiocovers/2020_May/acov_tid337653_thumb.jpg)

*Artist: Wolves Den
*Album: Miserere
*Year: 2020
*Genre: Melodic Black/Death Metal
*Country: Germany (IMG:https://metalarea.org/forum/style_images/flags/Germany.png)
*Format: mp3@CBR320kbps
*Size: 101MB

Tracklist:
1. Tides of Hate 04:47
2. Pfad ins Dunkel 04:40
3. Der Frost in mir 06:08
4. Nachtmahr 05:07
5. Häresie 05:04
6. Antaios 05:59
7. Melancholera 04:46
8. Nameless Grave 07:30
******************************
Total playing time: 44:01




Extended info
Manu Di Camillo Drums
Mexx Guitars
Helge Stang Bass, Vocals
Skoarth Guitars



Technical info
(IMG:https://metalarea.org/images/spectrogram/2020_May/34298e6cf715125c4c2f8418a0107e77.png)
Input File: 3 - Der Frost in mir.mp3
Channels : 2
Sample Rate : 44100
Precision : 16-bit
Duration : 00:06:07.85 = 16222317 samples = 27589 CDDA sectors
File Size : 14.8M
Bit Rate : 322k
Sample Encoding: MPEG audio (layer I, II or III)
Comments :
Title=Der Frost in mir
Artist=Wolves Den
Album=Miserere
Tracknumber=3
Year=2020
Genre=Rock
Discnumber=1



Register


Go to the top of the page
  Insert nick Quick quote
+Quote Post
 
Start new topic
Replies (1 - 7)
post May 15 2020, 17:14:49
Post #2

Правь статус, ####!111
**************
Group: Металариец
Posts: 2,998
Releases: 8
From: Dnipro
On Forums: 11 years 10 months
Thanks: 962 time(s)
Ukraine


А лось есть? (IMG:style_emoticons/default/smile3.gif) И предыдущий альбом бы в лосслесс заимел с удовольствием.
Go to the top of the page
  Insert nick Quick quote
+Quote Post
post May 15 2020, 17:52:36
Post #3

Литр
*
Group: Подсевший
Posts: 67
Releases: 0
From: Москва
On Forums: 13 years 7 months
Thanks: 17 time(s)
Russian Federation


Довольно мелодичный среднетемповый материал, ничего нового, но слушается хорошо.
Go to the top of the page
  Insert nick Quick quote
+Quote Post
post May 15 2020, 20:00:53
Post #4

Правь статус, ####!111
**************
Group: Металариец
Posts: 2,998
Releases: 8
From: Dnipro
On Forums: 11 years 10 months
Thanks: 962 time(s)
Ukraine


ЦИТАТА(Сварог Барг @ May 15 2020, 19:52:36) *
Довольно мелодичный среднетемповый материал, ничего нового, но слушается хорошо.

Первый альбом у них скоростной был, что то в духе ранних Дарк Фортрес


Thanks:
Go to the top of the page
  Insert nick Quick quote
+Quote Post
post May 22 2020, 20:31:38
Post #5

Восемь Литров
********
Group: Металариец
Posts: 803
Releases: 0
From: South Of Heaven
On Forums: 12 years 9 months
Thanks: 366 time(s)
Ukraine


Шикарнейший мелодик/блэк , 6-трек прекрасен ! (IMG:style_emoticons/default/metaler.gif)
Релизёру вери сенкс!! (IMG:style_emoticons/default/9.gif) (IMG:style_emoticons/default/9.gif)


Go to the top of the page
  Insert nick Quick quote
+Quote Post
post May 22 2020, 22:24:54
Post #6

Group: Подсевший
Posts: 40
Releases: 0
On Forums: 1 month 1 week
Thanks: 28 time(s)
Unknown


Сразу вспоминается шедеврище Hoth - Astral Necromancy (2018)


Thanks:
(1) russ777,
Go to the top of the page
  Insert nick Quick quote
+Quote Post
post May 22 2020, 22:27:52
Post #7

Правдоруб)
**************
Group: Металариец
Posts: 2,149
Releases: 1
From: Украина, Днепр
On Forums: 6 years 11 months
Thanks: 1716 time(s)
Ukraine


Тут, кстати, в итоге и "поселился" бывший вокалист Эквилибриума. Скачаю, почему нет. И прошлый тоже, чтоб уж совсем в курсе быть.
Залил на Мегу прошлый, может кому-то нужно:
Wolves Den - Deus Vult (2015)


Thanks:
Go to the top of the page
  Insert nick Quick quote
+Quote Post
post May 23 2020, 12:29:39
Post #8

Восемь Литров
********
Group: Металариец
Posts: 803
Releases: 0
From: South Of Heaven
On Forums: 12 years 9 months
Thanks: 366 time(s)
Ukraine


ЦИТАТА(kranger @ 23rd May 2020 - 00:24:54) *
Сразу вспоминается шедеврище Hoth - Astral Necromancy (2018)

Как-то упустил, спасибо за наводку (IMG:style_emoticons/default/9.gif) , уже качаю !


Thanks:
(1) kranger,
Go to the top of the page
  Insert nick Quick quote
+Quote Post

Reply to this topicStart new topic
2 User(s) are reading this topic (2 Guests and 0 Anonymous Users)
0 Members:

 



- Lo-Fi Version Support form
Copyrights and abuse reports form
Time is now: 25th May 2020 - 03:30:47