Welcome Guest ( Log In | Register )

> Releases Upload / Добавление релизов

Добавить релиз тут / Click here to add release
Рекомендованные обменники / Recommended file shares

> Ashtar - Kaikuja (2020), Black/Doom Metal
post May 14 2020, 17:22:41
Post #1

Правь статус, ####!111
**************
Group: Металариец
Posts: 2,922
Releases: 2617
From: Одесса
On Forums: 12 years 1 month
Thanks: 25163 time(s)
Ukraine


(IMG:http://metalarea.org/images/audiocovers/2020_May/acov_tid337660_thumb.jpg)

*Artist: Ashtar
*Album: Kaikuja
*Year: 2020
*Genre: Black/Doom Metal
*Country: Switzerland (IMG:http://metalarea.org/forum/style_images/flags/Switzerland.png)
*Format: mp3@CBR320kbps
*Size: 93MB

Tracklist:
1. Aeolus 05:40
2. Between Furious Clouds 13:47
3. Bloodstones 07:07
4. The Closing 05:30
5. (She Is) Awakening 06:53
******************************
Total playing time: 38:57



Extended info
Line - up:

Marko Lehtinen - Drums, Guitars, Vocals (ex-Phased, ex-Congaking, ex-Shilf)
Witch N - Vocals, Bass, Guitars, Violin (ex-Shever, ex-Phased (live))

(IMG:https://f4.bcbits.com/img/0019464546_10.jpg)


Technical info
(IMG:http://metalarea.org/images/spectrogram/2020_May/3fd054d3ce60b134f157358a03e1e39b.png)
Input File: 4 - The Closing.mp3
Channels : 2
Sample Rate : 44100
Precision : 16-bit
Duration : 00:05:30.08 = 14556440 samples = 24755.9 CDDA sectors
File Size : 13.3M
Bit Rate : 322k
Sample Encoding: MPEG audio (layer I, II or III)
Comments :
Title=The Closing
Artist=Ashtar
Album=Kaikuja
Tracknumber=4
Year=2020
Genre=Black/Doom Metal



Register


Go to the top of the page
  Insert nick Quick quote
+Quote Post
 
Start new topic
Replies (1 - 2)
post May 14 2020, 20:40:07
Post #2

Quaerite Lux in Tenebris
**************
Group: Металариец
Posts: 2,524
Releases: 45
From: Micsődőllő
On Forums: 9 years 11 months
Thanks: 5124 time(s)
Unknown


Очень хорошо и уверенно ваяют! Спасибо!

(IMG:style_emoticons/default/metaler.gif)
Go to the top of the page
  Insert nick Quick quote
+Quote Post
post Jun 30 2020, 00:31:40
Post #3

Правь статус, ####!111
**************
Group: Металариец
Posts: 4,511
Releases: 1267
From: Brazil
On Forums: 8 years 5 months
Thanks: 47491 time(s)
Brazil


Register

mp3@CBR320kbps
Go to the top of the page
  Insert nick Quick quote
+Quote Post

Reply to this topicStart new topic
2 User(s) are reading this topic (2 Guests and 0 Anonymous Users)
0 Members:

 



- Lo-Fi Version Support form
Copyrights and abuse reports form
Time is now: 9th July 2020 - 08:51:26