Welcome Guest ( Log In | Register )

> И неформату есть предел.

Рэп/хип-хоп/шансон/поп удаляются. Для них есть свои порталы.

 
Reply to this topicStart new topic
> Déhà - Older Stuff - 2 [compilation] (2020), Electronic/Neoclassical (D10)
post May 15 2020, 07:05:17
Post #1

Правь статус, ####!111
**************
Group: Металариец
Posts: 2,797
Releases: 2502
From: Одесса
On Forums: 11 years 11 months
Thanks: 23768 time(s)
Ukraine


(IMG:http://metalarea.org/images/audiocovers/2020_May/acov_tid337680_thumb.jpg)

*Artist: Déhà
*Album: Older Stuff - 2 [compilation]
*Year: 2020
*Genre: Electronic/Neoclassical
*Country: Belgium (IMG:http://metalarea.org/forum/style_images/flags/Belgium.png)
*Format: mp3@CBR320kbps
*Size: 176MB

Tracklist:
1. Archan 02:18
2. Archan Interlude 03:21
3. Aurora 05:01
4. Autumn's Breah 02:13
5. Dark Voices of Destiny 10:20
6. Darkness' Depths 02:43
7. Enough of this shit 04:51
8. Insomnia 03:20
9. Jesus So Christ 06:08
10. Lunatic Dream 06:04
11. Lynn 04:47
12. Massive 05:58
13. Paradoxical Paranosomnia 08:46
14. Take A Mist 03:37
15. Twisted Steel 04:42
******************************
Total playing time: 1:14:09



Extended info
FLAC RIP


Technical info
(IMG:http://metalarea.org/images/spectrogram/2020_May/990db6f75e5608828c8c8a7c9996487c.png)
Input File: 15. Twisted Steel.mp3
Channels : 2
Sample Rate : 44100
Precision : 16-bit
Duration : 00:04:42.48 = 12457368 samples = 21186 CDDA sectors
File Size : 11.3M
Bit Rate : 320k
Sample Encoding: MPEG audio (layer I, II or III)
Comments :
Title=Twisted Steel
Artist=Deha
Album=Older Stuff - 2 (Compilation)
Tracknumber=15
Year=2020
Genre=Various



Register


Go to the top of the page
  Insert nick Quick quote
+Quote Post

Reply to this topicStart new topic
1 User(s) are reading this topic (1 Guests and 0 Anonymous Users)
0 Members:

 



- Lo-Fi Version Support form
Copyrights and abuse reports form
Time is now: 31st May 2020 - 05:08:23