Welcome Guest ( Log In | Register )

> И неформату есть предел.

Рэп/хип-хоп/шансон/поп удаляются. Для них есть свои порталы.

 
Reply to this topicStart new topic
> Circle Of Dust - Machines Of Our Disgrace (2016), Electronic Rock/Industrial Metal (D4)
post May 15 2020, 16:27:44
Post #1

Два Литра
**
Group: Завсегдатай
Posts: 188
Releases: 18
From: Kaunas
On Forums: 13 years 4 months
Thanks: 542 time(s)
Lithuania


(IMG:https://metalarea.org/images/audiocovers/2020_May/acov_tid337710_thumb.jpg)

*Artist: Circle Of Dust
*Album: Machines Of Our Disgrace
*Year: 2016
*Genre: Electronic Rock/Industrial Metal
*Country: United States (IMG:https://metalarea.org/forum/style_images/flags/United%20States.png)
*Format: mp3@CBR320kbps
*Size: 134MB

Tracklist:
1. re_Engage 01:20
2. Machines of Our Disgrace 05:26
3. Contagion 05:25
4. Embracing Entropy (feat. Celldweller) 06:54
5. Humanarchy 05:00
6. Signal 00:31
7. alt_Human 05:01
8. Hive Mind 05:57
9. Outside In 06:16
10. Neurachem 04:45
11. k_OS 03:31
12. Neophyte 06:00
13. Malacandra 06:04
******************************
Total playing time: 1:02:10

(IMG:https://metalarea.org/images/youtube.png)
(IMG:https://metalarea.org/images/youtube.png)

Technical info
(IMG:https://metalarea.org/images/spectrogram/2020_May/2d6d8528d29e9a5dba7a9e58db3a1030.png)
Input File: 02. Circle of Dust - Machines of Our Disgrace.mp3
Channels : 2
Sample Rate : 44100
Precision : 16-bit
Duration : 00:05:25.98 = 14375586 samples = 24448.3 CDDA sectors
File Size : 13.3M
Bit Rate : 325k
Sample Encoding: MPEG audio (layer I, II or III)
Comments :
Title=Machines of Our Disgrace
Artist=Circle of Dust
Album=Machines of Our Disgrace
Tracknumber=2
Year=2016



Register


Go to the top of the page
  Insert nick Quick quote
+Quote Post

Reply to this topicStart new topic
1 User(s) are reading this topic (1 Guests and 0 Anonymous Users)
0 Members:

 



- Lo-Fi Version Support form
Copyrights and abuse reports form
Time is now: 28th May 2020 - 08:57:44