Welcome Guest ( Log In | Register )

> И неформату есть предел.

Рэп/хип-хоп/шансон/поп удаляются. Для них есть свои порталы.

> Einstürzende Neubauten - Alles In Allem (Deluxe Edition) (2020), Industrial/Experimental
post May 15 2020, 21:01:29
Post #1

Три Литра
***
Group: Завсегдатай
Posts: 229
Releases: 8
From: Санкт-Петербург
On Forums: 14 years 1 week
Thanks: 789 time(s)
Russian Federation


(IMG:http://metalarea.org/images/audiocovers/2020_May/acov_tid337733_thumb.jpg)

*Artist: Einstürzende Neubauten
*Album: Alles In Allem (Deluxe Edition)
*Year: 2020
*Genre: Industrial/Experimental
*Country: Germany (IMG:http://metalarea.org/forum/style_images/flags/Germany.png)
*Format: mp3@CBR320kbps
*Size: 170MB

Tracklist:
CD1:
01. Ten Grand Goldie 05:21
02. Am Landwehrkanal 03:03
03. Möbliertes Lied 04:30
04. Zivilisatorisches Missgeschick 04:02
05. Taschen 04:43
06. Seven Screws 03:55
07. Alles In Allem 04:18
08. Grazer Damm 06:27
09. Wedding 04:26
10. Tempelhof 03:22

CD2 (Phase IV: Additional Tracks & Alternative Versions):
01. Si Takka Lumi 04:50
02. Zuckerstimme 03:48
03. Grazer Damm (Version Mit Streichern) 06:28
04. Wedding Dress (First Vocal) 03:41
05. La Guillotine De Magritte 03:43
06. Zivilisatorisches Missgesch (Coda Version) 04:34
07. Count Into Existence 01:33
******************************
Total playing time: 1:12:44

(IMG:http://metalarea.org/images/youtube.png)

Technical info
(IMG:http://metalarea.org/images/spectrogram/2020_May/556eb15a7f16f21ea9d82b44f2d14397.png)
Input File: 01 - Ten Grand Goldie.mp3
Channels : 2
Sample Rate : 48000
Precision : 16-bit
Duration : 00:05:21.22 = 15418512 samples ~ 24091.4 CDDA sectors
File Size : 12.9M
Bit Rate : 321k
Sample Encoding: MPEG audio (layer I, II or III)
Comments :
Title=Ten Grand Goldie
Artist=Einstürzende Neubauten
Album=Alles In Allem
Tracknumber=01
Year=2020
Genre=Industrial/Experimental



Register


Go to the top of the page
  Insert nick Quick quote
+Quote Post
 
Start new topic
Replies (1 - 3)
post May 16 2020, 16:10:59
Post #2

Group: Подсевший
Posts: 15
Releases: 0
On Forums: 13 years 4 months
Thanks: 0 time(s)
Russian Federation


Еще могут дядьки! каеф!
спасибо!
Go to the top of the page
  Insert nick Quick quote
+Quote Post
post May 22 2020, 00:57:17
Post #3

Правь статус, ####!111
**************
Group: Металариец
Posts: 2,121
Releases: 0
From: Харьков
On Forums: 10 years 8 months
Thanks: 978 time(s)
Ukraine


Хороший альбом, очень легко на слух ложится) "Grazer Damm" - хайлайт явный, к счастью, не единственный (IMG:style_emoticons/default/20.gif)
Go to the top of the page
  Insert nick Quick quote
+Quote Post
post May 22 2020, 06:50:09
Post #4

Override the Overture
******
Group: Металариец
Posts: 531
Releases: 0
From: Moscow
On Forums: 12 years 4 months
Thanks: 59 time(s)
Russian Federation


2-3 достойных песни, остальное - адское днище и скам
Go to the top of the page
  Insert nick Quick quote
+Quote Post

Reply to this topicStart new topic
1 User(s) are reading this topic (1 Guests and 0 Anonymous Users)
0 Members:

 



- Lo-Fi Version Support form
Copyrights and abuse reports form
Time is now: 31st May 2020 - 05:12:06