Welcome Guest ( Log In | Register )

> И неформату есть предел.

Рэп/хип-хоп/шансон/поп удаляются. Для них есть свои порталы.

> Dust To Dearth & Lysergene - The Death Of The Sun [split] (2010), Dark Ambient/Industrial | Dark Ambient
post May 16 2020, 10:09:06
Post #1

Три Литра
***
Group: Завсегдатай
Posts: 229
Releases: 8
From: Санкт-Петербург
On Forums: 14 years 1 week
Thanks: 784 time(s)
Russian Federation


(IMG:http://metalarea.org/images/audiocovers/2020_May/acov_tid337740_thumb.jpg)

*Artist: Dust To Dearth & Lysergene
*Album: The Death Of The Sun [split]
*Year: 2010
*Genre: Dark Ambient/Industrial | Dark Ambient
*Country: Australia (IMG:http://metalarea.org/forum/style_images/flags/Australia.png) | United Kingdom (IMG:http://metalarea.org/forum/style_images/flags/United%20Kingdom.png)
*Format: mp3@CBR320kbps
*Size: 159MB

Tracklist:
Dust To Dearth:
1. The Death Of The Sun 08:04
2. Winter 11:22
3. It Is Dark 06:03
4. Dearth 03:43
5. The Last 11:10
Lysergene:
6. Mourning Sun 07:41
7. Nebula 07:14
8. Black Whole 15:03
******************************
Total playing time: 1:10:19

Extended info
Dust To Dearth: Mandy Murkrat (The Slow Death, Crone)
Lysergene: Gordon Bicknell (Esoteric)


Technical info
(IMG:http://metalarea.org/images/spectrogram/2020_May/a698e567f991e60886ab41a1e9b7ed23.png)
Input File: 01 - Dust To Dearth - The Death Of The Sun.mp3
Channels : 2
Sample Rate : 44100
Precision : 16-bit
Duration : 00:08:03.79 = 21335183 samples = 36284.3 CDDA sectors
File Size : 19.4M
Bit Rate : 320k
Sample Encoding: MPEG audio (layer I, II or III)
Comments :
Title=Dust To Dearth: The Death Of The Sun
Artist=Dust To Dearth/Lysergene
Album=The Death Of The Sun (split)
Tracknumber=01
Year=2010
Genre=Dark Ambient/Industrial



Register


This post has been edited by Абигор: May 16 2020, 10:35:37


Go to the top of the page
  Insert nick Quick quote
+Quote Post
 
Start new topic
Replies (1 - 1)
post May 16 2020, 11:04:41
Post #2

Два Литра
**
Group: Завсегдатай
Posts: 158
Releases: 0
On Forums: 3 years 4 weeks
Thanks: 35 time(s)
Albania


Отличный сплит. У Бикнела материаль послабее немного, но вот его Critical Mass очень крутой альбом.
Go to the top of the page
  Insert nick Quick quote
+Quote Post

Reply to this topicStart new topic
1 User(s) are reading this topic (1 Guests and 0 Anonymous Users)
0 Members:

 



- Lo-Fi Version Support form
Copyrights and abuse reports form
Time is now: 28th May 2020 - 07:57:14