Welcome Guest ( Log In | Register )

> И неформату есть предел.

Рэп/хип-хоп/шансон/поп удаляются. Для них есть свои порталы.

> April Wine - The Nature Of The Beast (1981), Hard Rock/Heavy Metal
post May 18 2020, 01:46:40
Post #1

Шесть Литров
******
Group: Металариец
Posts: 625
Releases: 123
On Forums: 1 year 4 months
Thanks: 1470 time(s)
Canada


(IMG:https://metalarea.org/images/audiocovers/2020_May/acov_tid337781_thumb.jpg)

*Artist: April Wine
*Album: The Nature Of The Beast
*Year: 1981
*Genre: Hard Rock/Heavy Metal
*Country: Canada (IMG:https://metalarea.org/forum/style_images/flags/Canada.png)
*Format: mp3@VBR240kbps
*Size: 71MB

Tracklist:
1. All over Town 03:00
2. Tellin' Me Lies 03:01
3. Sign of the Gypsy Queen 04:17
4. Just Between You and Me 03:55
5. Wanna Rock 02:05
6. Caught in the Crossfire 03:34
7. Future Tense 04:09
8. Big City Girls 03:41
9. Crash and Burn 02:33
10. Bad Boys 03:10
11. One More Time 03:56
******************************
Total playing time: 37:21

Technical info
(IMG:https://metalarea.org/images/spectrogram/2020_May/cec58eac2e872ab350bf48ac125db8b5.png)
Input File: 09 - Crash and Burn.mp3
Channels : 2
Sample Rate : 44100
Precision : 16-bit
Duration : 00:02:33.44 = 6766836 samples = 11508.2 CDDA sectors
File Size : 5.22M
Bit Rate : 272k
Sample Encoding: MPEG audio (layer I, II or III)
Comments :
Title=Crash and Burn
Artist=April Wine
Album=The Nature of the Beast
Tracknumber=9/11
Year=1981
Genre=Rock
Discnumber=1 / 1



Register


Go to the top of the page
  Insert nick Quick quote
+Quote Post
 
Start new topic
Replies (1 - 2)
post May 18 2020, 08:30:50
Post #2

Два Литра
**
Group: Завсегдатай
Posts: 128
Releases: 0
From: Харбин
On Forums: 1 year 9 months
Thanks: 160 time(s)
Unknown


classsic hard rock,no heavy metal.


Go to the top of the page
  Insert nick Quick quote
+Quote Post
post May 18 2020, 19:59:20
Post #3

Total Death
**********
Group: Металариец
Posts: 1,138
Releases: 75
On Forums: 10 years 11 months
Thanks: 1859 time(s)
Unknown


Хард рок/АОР, никакого метала тут нету.
Go to the top of the page
  Insert nick Quick quote
+Quote Post

Reply to this topicStart new topic
1 User(s) are reading this topic (1 Guests and 0 Anonymous Users)
0 Members:

 



- Lo-Fi Version Support form
Copyrights and abuse reports form
Time is now: 31st May 2020 - 04:45:25