Welcome Guest ( Log In | Register )

> И неформату есть предел.

Рэп/хип-хоп/шансон/поп удаляются. Для них есть свои порталы.

 
Reply to this topicStart new topic
> Hawkwind - Space Bandits (1991), Psychedelic/Space Rock/Progressive Rock (D6)
post May 18 2020, 01:53:49
Post #1

Шесть Литров
******
Group: Металариец
Posts: 694
Releases: 134
On Forums: 1 year 6 months
Thanks: 1682 time(s)
Canada


(IMG:https://metalarea.org/images/audiocovers/2020_May/acov_tid337782_thumb.jpg)

*Artist: Hawkwind
*Album: Space Bandits
*Year: 1991
*Genre: Psychedelic/Space Rock/Progressive Rock
*Country: United Kingdom (IMG:https://metalarea.org/forum/style_images/flags/United%20Kingdom.png)
*Format: mp3@VBR240kbps
*Size: 73MB

Tracklist:
1. Images 09:34
2. Black Elk Speaks 05:15
3. Wings 05:22
4. Out Of The Shadows 04:57
5. Realms 03:26
6. Ship Of Dreams 05:13
7. T.V. Suicide 05:20
******************************
Total playing time: 39:07

Technical info
(IMG:https://metalarea.org/images/spectrogram/2020_May/a9e04ca478fdc39a50ac1f0382e07c94.png)
Input File: 01 - Images.mp3
Channels : 2
Sample Rate : 44100
Precision : 16-bit
Duration : 00:09:34.51 = 25335935 samples = 43088.3 CDDA sectors
File Size : 19.6M
Bit Rate : 273k
Sample Encoding: MPEG audio (layer I, II or III)
Comments :
Title=Images
Artist=Hawkwind
Album=Space Bandits
Tracknumber=1/7
Year=1990
Genre=Space
Discnumber=1 / 1



Register


Go to the top of the page
  Insert nick Quick quote
+Quote Post

Reply to this topicStart new topic
1 User(s) are reading this topic (1 Guests and 0 Anonymous Users)
0 Members:

 



- Lo-Fi Version Support form
Copyrights and abuse reports form
Time is now: 7th August 2020 - 17:06:29