Welcome Guest ( Log In | Register )

> И неформату есть предел.

Рэп/хип-хоп/шансон/поп удаляются. Для них есть свои порталы.

 
Reply to this topicStart new topic
> Ramones - Pleasant Dreams (1981), Hard Rock/Garage Rock/Punk Rock
post May 18 2020, 02:01:37
Post #1

Шесть Литров
******
Group: Металариец
Posts: 625
Releases: 123
On Forums: 1 year 4 months
Thanks: 1470 time(s)
Canada


(IMG:https://metalarea.org/images/audiocovers/2020_May/acov_tid337783_thumb.jpg)

*Artist: Ramones
*Album: Pleasant Dreams
*Year: 1981
*Genre: Hard Rock/Garage Rock/Punk Rock
*Country: United States (IMG:https://metalarea.org/forum/style_images/flags/United%20States.png)
*Format: mp3@VBR240kbps
*Size: 123MB

Tracklist:
1. We Want The Airwaves 03:21
2. All's Quiet On The Eastern Front 02:13
3. The KKK Took My Baby Away 02:32
4. Don't Go 02:48
5. You Sound Like You're Sick 02:42
6. It's Not My Place (In The 9 To 5 World) 03:23
7. She's A Sensation 03:29
8. 7-11 03:35
9. You Didn't Mean Anything To Me 03:00
10. Come On Now 02:33
11. This Business Is Killing Me 02:41
12. Sitting In My Room 02:37
13. Touring (1981 Version) 02:49
14. I Can't Get You Out Of My Mind (Bonus Track) 03:24
15. Chop Suey (Alternate Version) 03:32
16. Sleeping Troubles (Demo) 02:07
17. Kicks To Try (Demo) 02:09
18. I'm Not An Answer (Demo) 02:55
19. Stares In This Town (Demo) 02:26
******************************
Total playing time: 54:16

Technical info
(IMG:https://metalarea.org/images/spectrogram/2020_May/73ecebc88808efcd1370696fe752f29f.png)
Input File: 01 - We Want The Airwaves.mp3
Channels : 2
Sample Rate : 44100
Precision : 16-bit
Duration : 00:03:21.95 = 8906083 samples = 15146.4 CDDA sectors
File Size : 7.56M
Bit Rate : 300k
Sample Encoding: MPEG audio (layer I, II or III)
Comments :
Title=We Want The Airwaves
Artist=Ramones
Album=Pleasant Dreams
Tracknumber=1/19
Year=1981
Genre=Punk
Discnumber=1 / 1



Register


Thanks:
Go to the top of the page
  Insert nick Quick quote
+Quote Post

Reply to this topicStart new topic
1 User(s) are reading this topic (1 Guests and 0 Anonymous Users)
0 Members:

 



- Lo-Fi Version Support form
Copyrights and abuse reports form
Time is now: 31st May 2020 - 04:55:01