Welcome Guest ( Log In | Register )

> И неформату есть предел.

Рэп/хип-хоп/шансон/поп удаляются. Для них есть свои порталы.

 
Reply to this topicStart new topic
> Thin Lizzy - Dedication-The Very Best Of Thin Lizzy [compilation] (1991), Hard Rock (D)
post May 18 2020, 02:04:52
Post #1

Шесть Литров
******
Group: Металариец
Posts: 621
Releases: 123
On Forums: 1 year 3 months
Thanks: 1466 time(s)
Canada


(IMG:https://metalarea.org/images/audiocovers/2020_May/acov_tid337784_thumb.jpg)

*Artist: Thin Lizzy
*Album: Dedication-The Very Best Of Thin Lizzy [compilation]
*Year: 1991
*Genre: Hard Rock
*Country: United Kingdom (IMG:https://metalarea.org/forum/style_images/flags/United%20Kingdom.png)
*Format: mp3@VBR240kbps
*Size: 147MB

Tracklist:
1. Whiskey In The Jar 05:44
2. The Rocker 05:11
3. She Knows 05:14
4. Still In Love With You 05:39
5. Showdown 04:30
6. Rosalie 03:13
7. Wild One 04:20
8. Fighting My Way Back 03:14
9. Jailbreak 04:03
10. The Boys Are Back In Town 04:29
11. Cowboy Song 05:18
12. Don't Believe A Word 02:18
13. Bad Reputation 03:07
14. Dancin' In The Moonlight (It's Caught Me In Its Spotlight) 03:26
15. Do Anything You Want To 03:53
16. Waiting For An Alibi 04:10
17. Chinatown 04:43
18. Dedication 03:58
******************************
Total playing time: 1:16:30

Technical info
(IMG:https://metalarea.org/images/spectrogram/2020_May/9f90b37f63997a5b0c17b534e7a99743.png)
Input File: 13 - Bad Reputation.mp3
Channels : 2
Sample Rate : 44100
Precision : 16-bit
Duration : 00:03:07.66 = 8275938 samples = 14074.7 CDDA sectors
File Size : 6.67M
Bit Rate : 285k
Sample Encoding: MPEG audio (layer I, II or III)
Comments :
Title=Bad Reputation
Artist=Thin Lizzy
Album=Dedication: The Very Best of Thin Lizzy
Tracknumber=13/18
Year=1991
Genre=Rock
Discnumber=1 / 1



Register


Go to the top of the page
  Insert nick Quick quote
+Quote Post

Reply to this topicStart new topic
1 User(s) are reading this topic (1 Guests and 0 Anonymous Users)
0 Members:

 



- Lo-Fi Version Support form
Copyrights and abuse reports form
Time is now: 28th May 2020 - 07:41:42