Welcome Guest ( Log In | Register )

> И неформату есть предел.

Рэп/хип-хоп/шансон/поп удаляются. Для них есть свои порталы.

 
Reply to this topicStart new topic
> Masters Of Reality - Welcome To The Western Lodge (2001), Hard Rock/Stoner Rock
post May 18 2020, 02:08:34
Post #1

Шесть Литров
******
Group: Металариец
Posts: 629
Releases: 123
On Forums: 1 year 4 months
Thanks: 1475 time(s)
Canada


(IMG:https://metalarea.org/images/audiocovers/2020_May/acov_tid337785_thumb.jpg)

*Artist: Masters Of Reality
*Album: Welcome To The Western Lodge
*Year: 2001
*Genre: Hard Rock/Stoner Rock
*Country: United States (IMG:https://metalarea.org/forum/style_images/flags/United%20States.png)
*Format: mp3@VBR240kbps
*Size: 75MB

Tracklist:
1. It's Shit 02:56
2. Moriah 03:33
3. The Great Spelunker 03:10
4. Time To Burn 02:36
5. Take A Shot At The Clown 03:52
6. Baby Mae 03:14
7. Why The Fly 04:00
8. Ember Day 00:54
9. Annihilation Of The Spirit 02:32
10. Calling Dr. Carrion 03:22
11. Boymilk Waltz 02:36
12. Lover's Sky 02:55
13. Also Ran Song 02:59
******************************
Total playing time: 38:39

Technical info
(IMG:https://metalarea.org/images/spectrogram/2020_May/6c50e6af9a4375ffde59cddf7e1f2b8e.png)
Input File: 01 - It\'s Shit.mp3
Channels : 2
Sample Rate : 44100
Precision : 16-bit
Duration : 00:02:56.64 = 7789824 samples = 13248 CDDA sectors
File Size : 6.53M
Bit Rate : 296k
Sample Encoding: MPEG audio (layer I, II or III)
Comments :
Title=It's Shit
Artist=Masters Of Reality
Album=Welcome To The Western Lodge
Tracknumber=1/13
Year=2001
Genre=Rock
Discnumber=1 / 1



Register


Go to the top of the page
  Insert nick Quick quote
+Quote Post

Reply to this topicStart new topic
1 User(s) are reading this topic (1 Guests and 0 Anonymous Users)
0 Members:

 



- Lo-Fi Version Support form
Copyrights and abuse reports form
Time is now: 3rd June 2020 - 01:48:14