Welcome Guest ( Log In | Register )

> И неформату есть предел.

Рэп/хип-хоп/шансон/поп удаляются. Для них есть свои порталы.

 
Reply to this topicStart new topic
> Ramones - Weird Tales Of The Ramones [compilation] (2005), Hard Rock/Garage Rock/Punk Rock
post May 18 2020, 03:05:18
Post #1

Шесть Литров
******
Group: Металариец
Posts: 629
Releases: 123
On Forums: 1 year 4 months
Thanks: 1475 time(s)
Canada


(IMG:https://metalarea.org/images/audiocovers/2020_May/acov_tid337787_thumb.jpg)

*Artist: Ramones
*Album: Weird Tales Of The Ramones [compilation]
*Year: 2005
*Genre: Hard Rock/Garage Rock/Punk Rock
*Country: United States (IMG:https://metalarea.org/forum/style_images/flags/United%20States.png)
*Format: mp3@VBR240kbps
*Size: 637MB

Tracklist:
CD 1
1. Blitzkrieg Bop 02:12
2. Beat On The Brat 02:32
3. Judy Is A Punk 01:30
4. I Wanna Be Your Boyfriend 02:25
5. Loudmouth 02:14
6. 53rd & 3rd 02:20
7. Havana Affair 01:56
8. Now I Wannna Sniff Some Glue 01:35
9. Glad To See You Go 02:10
10. Gimme Gimme Shock Treatment 01:40
11. I Remember You 02:18
12. Carbona Not Glue 01:50
13. Oh Oh I Love Her So 02:05
14. Swallow My Pride 02:03
15. Commando 01:53
16. Pinhead 02:43
17. Sheena Is A Punk Rocker (ABC Single Version) 02:47
18. I Don't Care (Single Version) 01:37
19. Rockaway Beach 02:05
20. Cretin Hop 01:55
21. Here Today, Gone Tomorrow 02:48
22. Teenage Lobotomy 02:01
23. Slug (Demo) 02:22
24. Surfin' Bird 02:35
25. We're A Happy Family 02:39
26. I Just Want To Have Something To Do 02:41
27. I Wanted Everything 03:14
28. Needles & Pins (Remixed Single Version) 02:21
29. I Wanna Be Sedated 02:29
30. Go Mental 02:40
31. Don't Come Close 02:44
32. I Don't Want You 02:26
33. She's The One 02:13
34. I'm Against It 02:07
CD 2
35. Rock 'N' Roll High School (Ed Stasium Mix) 02:18
36. I Want You Around (Ed Stasium Mix) 03:00
37. Do You Remember Rock 'N' Roll Radio 03:50
38. I'm Affected 02:53
39. Danny Says 03:05
40. The KKK Took My Baby Away 02:31
41. You Sound Like You're Sick 02:41
42. She's A Sensation 03:25
43. All's Quiet On The Eastern Front 02:12
44. Outsider 02:10
45. Highest Trails Above 02:09
46. Psycho Therapy 02:34
47. Time Bomb 02:09
48. Mama's Boy 02:09
49. I'm Not Afraid Of Life 03:12
50. Too Tough To Die 02:37
51. Wart Hog 01:54
52. Howling At The Moon (Sha-La-La) 04:06
53. Daytime Dilemma (Dangers Of Love) 04:32
54. Endless Vacation 01:47
55. My Brain Is Hanging Upside Down (Bonzo Goes To Bitburg) (UK 12" Version) 03:54
56. Ramones - Somebody Put Something In My Drink 03:20
57. Animal Boy 01:49
58. I Don't Want To Live This Life (Anymore) (UK B-Side) 03:28
59. Love Kills 02:20
60. Something To Believe In (Single Version) 04:18
CD 3
61. I Wanna Live 02:37
62. Bop 'Til You Drop 02:12
63. I Lost My Mind 01:33
64. Garden Of Serenity 02:27
65. I Believe In Miracles 03:20
66. Pet Sematary (Single Version) 03:30
67. Punishment Fits The Crime 03:05
68. Merry Christmas (I Don't Want To Fight Tonight) (Single Version) 02:04
69. Main Man 03:26
70. Strength To Endure 02:59
71. Poison Heart 04:02
72. I Won't Let It Happen 02:20
73. Censorshit 03:07
74. Journey To The Center Of The Mind 02:51
75. 7 And 7 Is 01:51
76. When I Was Young 03:13
77. I Don't Wanna Grow Up 02:45
78. Scattergun 02:29
79. Makin' Monsters For My Friends 02:35
80. The Crusher 02:25
81. Spiderman 01:56
82. Life's A Gas 03:33
83. She Talks To Rainbows 03:13
84. Any Way You Want It 02:20
85. R.A.M.O.N.E.S. 01:24
******************************
Total playing time: 3:38:50

Extended info
boxset includes all scans


Technical info
(IMG:https://metalarea.org/images/spectrogram/2020_May/a20404c8010bcd728c794e3f012ba098.png)
Input File: 12 - Carbona Not Glue.mp3
Channels : 2
Sample Rate : 44100
Precision : 16-bit
Duration : 00:01:50.94 = 4892542 samples = 8320.65 CDDA sectors
File Size : 5.35M
Bit Rate : 386k
Sample Encoding: MPEG audio (layer I, II or III)
Comments :
Title=Carbona Not Glue
Artist=Ramones
Album=Weird Tales Of The Ramones - Disc 1
Tracknumber=12/34
Year=2005
Genre=Punk
Discnumber=1 / 1



Register


Go to the top of the page
  Insert nick Quick quote
+Quote Post

Reply to this topicStart new topic
1 User(s) are reading this topic (1 Guests and 0 Anonymous Users)
0 Members:

 



- Lo-Fi Version Support form
Copyrights and abuse reports form
Time is now: 3rd June 2020 - 02:08:54