Welcome Guest ( Log In | Register )

> И неформату есть предел.

Рэп/хип-хоп/шансон/поп удаляются. Для них есть свои порталы.

 
Reply to this topicStart new topic
> Planetshine - Emptiness [ep] (2020), Space Rock/Post-Rock (D4)
post May 21 2020, 07:11:33
Post #1

Литр
*
Group: Подсевший
Posts: 77
Releases: 56
On Forums: 6 years 1 month
Thanks: 969 time(s)
Unknown


(IMG:http://metalarea.org/images/audiocovers/2020_May/acov_tid337885_thumb.jpg)

*Artist: Planetshine
*Album: Emptiness [ep]
*Year: 2020
*Genre: Space Rock/Post-Rock
*Country: Russian Federation (IMG:http://metalarea.org/forum/style_images/flags/Russian%20Federation.png)
*Format: mp3@CBR320kbps
*Size: 77MB

Tracklist:
1. Emptiness 09:34
2. In The Trap Of The Void 08:26
3. Walking On The Milky Way 04:03
4. [Trance]formation 04:10
5. Emptiness (Instrumental) 06:50
******************************
Total playing time: 33:03



Extended info
Planetshine presents an experimental mini-album "Emptiness". On this release, the project searches for other artistic means to depict the boundless cosmos. Here Planetshine enters the field of electronic music, rejecting all guitars and live bass, removing all aggressive pressure, leaving only an atmosphere of all-consuming emptiness.


Technical info
(IMG:http://metalarea.org/images/spectrogram/2020_May/f278ce9adb98ff4110dc49ded83182f9.png)
Input File: 02 In The Trap Of The Void.mp3
Channels : 2
Sample Rate : 44100
Precision : 16-bit
Duration : 00:08:26.10 = 22318922 samples = 37957.4 CDDA sectors
File Size : 20.4M
Bit Rate : 322k
Sample Encoding: MPEG audio (layer I, II or III)
Comments :
Title=In The Trap Of The Void
Artist=Planetshine
Album=Emptiness
Tracknumber=2



Register


Go to the top of the page
  Insert nick Quick quote
+Quote Post

Reply to this topicStart new topic
1 User(s) are reading this topic (1 Guests and 0 Anonymous Users)
0 Members:

 



- Lo-Fi Version Support form
Copyrights and abuse reports form
Time is now: 3rd June 2020 - 02:40:57