Welcome Guest ( Log In | Register )

> Releases Upload / Добавление релизов

Добавить релиз тут / Click here to add release
Рекомендованные обменники / Recommended file shares

> Various Artists - Rock Hard 300 - 9 Rare Songs Von 9 Legenden [compilation] (2012), Various Metal (D2171)
post May 21 2020, 11:22:37
Post #1

Правь статус, ####!111
**************
Group: Металариец
Posts: 2,373
Releases: 212
On Forums: 13 years 5 months
Thanks: 5493 time(s)
Unknown


(IMG:http://metalarea.org/images/audiocovers/2020_May/acov_tid337890_thumb.jpg)

*Artist: Various Artists
*Album: Rock Hard 300 - 9 Rare Songs Von 9 Legenden [compilation]
*Year: 2012
*Genre: Various Metal
*Country: Many (IMG:http://metalarea.org/forum/style_images/flags/Many.png)
*Format: mp3@CBR320kbps
*Size: 125MB

Tracklist:
1. Bobby & Gerre - Die Zwei von der Tanke 3:35
2. Kreator - Phantom Antichrist (Edit) 4:31
3. Blind Guardian - I'm Alive (Demo 1991) 5:18
4. Arch Enemy - The Zoo (The Scorpions cover) 4:41
5. Amon Amarth - Children Of The Grave (Black Sabbath cover) 5:22
6. Nevermore - The Purist's Drug 4:45
7. In Extremo - I Disappear (Metallica cover) 4:15
8. Heaven Shall Burn - True Belief (Paradise Lost cover) 4:34
9. Iced Earth - Dante's Inferno (Version 2011) 17:15
******************************
Total playing time: 54:16

Technical info
(IMG:http://metalarea.org/images/spectrogram/2020_May/262c51dd5baa18d9ffcfde84168cacc8.png)
Input File: 01 - Bobby & Gerre - Die Zwei von der Tanke.mp3
Channels : 2
Sample Rate : 44100
Precision : 16-bit
Duration : 00:03:35.64 = 9509724 samples = 16173 CDDA sectors
File Size : 8.77M
Bit Rate : 325k
Sample Encoding: MPEG audio (layer I, II or III)
Comments :
Title=Die Zwei von der Tanke
Artist=Bobby & Gerre
Album=Rock Hard - 9 rare Songs von 9 Legenden
Tracknumber=1/9
Year=2012
Genre=Metal



Register


Go to the top of the page
  Insert nick Quick quote
+Quote Post
 
Start new topic
Replies (1 - 3)
post May 21 2020, 20:39:13
Post #2

Маньяк
**********
Group: Металариец
Posts: 1,374
Releases: 5
From: Нью-Васюки
On Forums: 14 years 6 days
Thanks: 401 time(s)
Russian Federation


И что тут легендарного?Один шлак.
Go to the top of the page
  Insert nick Quick quote
+Quote Post
post May 21 2020, 22:46:43
Post #3

Правь статус, ####!111
**************
Group: Металариец
Posts: 2,373
Releases: 212
On Forums: 13 years 5 months
Thanks: 5493 time(s)
Unknown


Тут одна легендарная песня, которой больше нигде не найти.
Bobby (Sodom) + Gerre (Tankard) + продюсер Waldemar Sorychta

Go to the top of the page
  Insert nick Quick quote
+Quote Post
post May 22 2020, 22:37:29
Post #4

Правь статус, ####!111
**************
Group: Металариец
Posts: 2,373
Releases: 212
On Forums: 13 years 5 months
Thanks: 5493 time(s)
Unknown


QUOTE(Wail @ May 22 2020, 21:17:27) *
Nevermore - The Purist's Drug
Is missing


I'm sorry, have no idea why it happened.
The archive along with the missing song has been just re-uploaded by me,
check it out.


Thanks:
Go to the top of the page
  Insert nick Quick quote
+Quote Post

Reply to this topicStart new topic
2 User(s) are reading this topic (2 Guests and 0 Anonymous Users)
0 Members:

 



- Lo-Fi Version Support form
Copyrights and abuse reports form
Time is now: 25th May 2020 - 02:35:49