Welcome Guest ( Log In | Register )

> Releases Upload / Добавление релизов

Добавить релиз тут / Click here to add release
Рекомендованные обменники / Recommended file shares

> Henry Kane - Age Of The Idiot (2020), Crust/Death/Black Metal
post May 21 2020, 12:16:24
Post #1

MDM-Thrash Metal
**************
Group: Металариец
Posts: 9,511
Releases: 861
From: Одесса
On Forums: 12 years 9 months
Thanks: 22532 time(s)
Ukraine


(IMG:http://metalarea.org/images/audiocovers/2020_May/acov_tid337899_thumb.jpg)

*Artist: Henry Kane
*Album: Age Of The Idiot
*Year: 2020
*Genre: Crust/Death/Black Metal
*Country: Sweden (IMG:http://metalarea.org/forum/style_images/flags/Sweden.png)
*Format: mp3@CBR320kbps
*Size: 83MB

Tracklist:
1. En evig plågan 01:54
2. Tidens tand 01:51
3. Veil of Hatred 02:02
4. Den felande länken 01:23
5. Embraced by Nothing 00:59
6. Age of the Idiot 02:48
7. Disposable Humans 01:52
8. Entrenched in Nihilism 04:09
9. Mitt hjärtas mörker 01:10
10. My Sweet Escape 01:09
11. Keep Us from the Truth 02:29
12. No Road to Redemption 00:47
13. March of the Dumb 01:09
14. By the Virtue of Hate 02:39
15. Liar oh Father the Liar 00:54
16. Snarans Ballad 00:57
17. Take It Back 01:52
18. Welcome to Oblivion 01:24
19. Psykopaten (Asta Kask cover) 02:31
******************************
Total playing time: 33:59




Extended info
Jonny Pettersson All instruments (2016-present)
See also: Acid Domain, Ashcloud, Berzerker Legion, Cropsy Maniac, Crossbow Suicide, Gods Forsaken, Heads for the Dead, Human Harvest, Just Before Dawn, Nattravnen, Pale King, Skineater, Syn:drom, Ursinne, Vholdghast, Wombbath, ex-Disfigured Victims, ex-Cavevomit, Troikadon, ex-Sorghegard, ex-Ooz


Technical info
(IMG:http://metalarea.org/images/spectrogram/2020_May/d204d2af038e29d04ef0bb242cd751c0.png)
Input File: HENRY KANE (Sweden) - Age of the Idiot (Death Metal-Grind-Crust) - 01 En Evig Plågan.mp3
Channels : 2
Sample Rate : 44100
Precision : 16-bit
Duration : 00:01:53.61 = 5010289 samples = 8520.9 CDDA sectors
File Size : 4.78M
Bit Rate : 336k
Sample Encoding: MPEG audio (layer I, II or III)
Comments :
Title=En Evig Plågan
Artist=HENRY KANE (Sweden)
Album=Age of the Idiot (Death Metal/Grind/Crust)
Tracknumber=1
Year=2020



Register


Go to the top of the page
  Insert nick Quick quote
+Quote Post
 
Start new topic
Replies (1 - 3)
post May 21 2020, 21:52:37
Post #2
BAN
Banned till
Jun 1 2020, 09:51:43



Not many comments on this parallel project. Throwing an ear at it...
Go to the top of the page
  Insert nick Quick quote
+Quote Post
post May 22 2020, 05:35:32
Post #3

Три Литра
***
Group: Завсегдатай
Posts: 259
Releases: 0
On Forums: 13 years 1 month
Thanks: 182 time(s)
Russian Federation


Неплохой красто-грайнд-детх альбом с типичным жужжанием для шведского метала. На бендкэмп можно скачать бесплатно (IMG:style_emoticons/default/banana.gif)
Есть даже мелодии какие-то местами. В целом, напомнило что-то вроде Fukpig, только менее хардкорно-панковое.
Go to the top of the page
  Insert nick Quick quote
+Quote Post
post May 22 2020, 21:47:39
Post #4

Group: Подсевший
Posts: 40
Releases: 0
On Forums: 1 month 1 week
Thanks: 28 time(s)
Unknown


Jonny Pettersson и этим все сказано.
Прошлый был зашибись .
Возрождает ветку искусно дистиллировав свое видение.
Go to the top of the page
  Insert nick Quick quote
+Quote Post

Reply to this topicStart new topic
2 User(s) are reading this topic (2 Guests and 0 Anonymous Users)
0 Members:

 



- Lo-Fi Version Support form
Copyrights and abuse reports form
Time is now: 25th May 2020 - 02:32:05