Welcome Guest ( Log In | Register )

> Releases Upload / Добавление релизов

Добавить релиз тут / Click here to add release
Рекомендованные обменники / Recommended file shares

 
Reply to this topicStart new topic
> Cranial Carnage - Crown Of Impiety (2020), Brutal Death Metal
post May 21 2020, 16:33:46
Post #1

Правь статус, ####!111
**************
Group: Металариец
Posts: 21,875
Releases: 15083
From: Г.Харьков
On Forums: 8 years 2 weeks
Thanks: 273352 time(s)
Unknown


(IMG:https://metalarea.org/images/audiocovers/2020_May/acov_tid337916_thumb.jpg)

*Artist: Cranial Carnage
*Album: Crown Of Impiety
*Year: 2020
*Genre: Brutal Death Metal
*Country: Czech Republic (IMG:https://metalarea.org/forum/style_images/flags/Czech%20Republic.png)
*Format: mp3@CBR320kbps
*Size: 61MB

Tracklist:
1. Animosity 02:37
2. Perverse Asphyxiation 01:55
3. Gory Psalm 03:34
4. Monument of Depravity 02:54
5. Unholy Flesh 02:31
6. Empathy God 02:34
7. Crown of Impiety 02:52
8. Embracing of Inferno 03:04
9. Bloodthirsty Pope 02:34
10. Journey to Hellish Purity (Outro) 01:15
******************************
Total playing time: 25:50




Extended info
Marty Guitars, Vocals
Rebus Vocals
Mara Bass (2014-present)
Volcano Drums (2015-present)
Nagard Guitars (2015-present)
See also: D.M.C., ex-S.C.U.M., ex-Destroying Divinity, ex-Die For Belief, ex-Ora lamae


Technical info
(IMG:https://metalarea.org/images/spectrogram/2020_May/3a3effc190bcf2f6f5ac193a898a7acc.png)
Input File: 03. Gory Psalm.mp3
Channels : 2
Sample Rate : 44100
Precision : 16-bit
Duration : 00:03:33.75 = 9426287 samples = 16031.1 CDDA sectors
File Size : 8.76M
Bit Rate : 328k
Sample Encoding: MPEG audio (layer I, II or III)
Comments :
Title=Gory Psalm
Artist=Cranial Carnage
Album=Crown of Impiety
Tracknumber=3
Year=2020



Register


Go to the top of the page
  Insert nick Quick quote
+Quote Post

Reply to this topicStart new topic
2 User(s) are reading this topic (2 Guests and 0 Anonymous Users)
0 Members:

 



- Lo-Fi Version Support form
Copyrights and abuse reports form
Time is now: 28th May 2020 - 20:36:01