Welcome Guest ( Log In | Register )

> Releases Upload / Добавление релизов

Добавить релиз тут / Click here to add release
Рекомендованные обменники / Recommended file shares

> [Evertrapped] - The Last Extinction (2020), Melodic Death Metal
post May 21 2020, 16:52:39
Post #1

Правь статус, ####!111
**************
Group: Металариец
Posts: 21,865
Releases: 15074
From: Г.Харьков
On Forums: 8 years 2 weeks
Thanks: 273166 time(s)
Unknown


(IMG:https://metalarea.org/images/audiocovers/2020_May/acov_tid337917_thumb.jpg)

*Artist: [Evertrapped]
*Album: The Last Extinction
*Year: 2020
*Genre: Melodic Death Metal
*Country: Canada (IMG:https://metalarea.org/forum/style_images/flags/Canada.png)
*Format: mp3@CBR320kbps
*Size: 132MB

Tracklist:
1. Sorrow (Nothing More in Between) 07:35
2. Truth Behind Disorder 05:30
3. Across the Disease 05:49
4. Titan 05:52
5. The First Machine 05:59
6. The Last Extinction 06:10
7. Illusion 07:08
8. Stillborn Era 05:26
9. Learning to Kill 07:52
******************************
Total playing time: 57:21




Extended info
Eric Lemire Drums (2007-present)
Vincent Benoît Guitars (2007-present)
Fred Dupuis Guitars, Vocals (backing) (2007-present)
James Brookes Vocals (lead) (2011-present)
John Yates Bass (2013-present)
See also: ex-AraPacis


Technical info
(IMG:https://metalarea.org/images/spectrogram/2020_May/db6b0a9996966984216cb7afb4a01af5.png)
Input File: 05 - The First Machine.mp3
Channels : 2
Sample Rate : 44100
Precision : 16-bit
Duration : 00:06:00.17 = 15883629 samples = 27013 CDDA sectors
File Size : 14.5M
Bit Rate : 322k
Sample Encoding: MPEG audio (layer I, II or III)
Comments :
Title=The First Machine
Artist=Evertrapped
Album=The Last Extinction
Tracknumber=5
Year=2020
Discnumber=1



Register


Go to the top of the page
  Insert nick Quick quote
+Quote Post
 
Start new topic
Replies (1 - 1)
post May 22 2020, 06:15:52
Post #2

hearer & reader
**************
Group: Металариец
Posts: 8,695
Releases: 140
From: Moscow
On Forums: 12 years 8 months
Thanks: 8709 time(s)
Russian Federation


https://music.yandex.ru/album/10381102
Register
Go to the top of the page
  Insert nick Quick quote
+Quote Post

Reply to this topicStart new topic
1 User(s) are reading this topic (1 Guests and 0 Anonymous Users)
0 Members:

 



- Lo-Fi Version Support form
Copyrights and abuse reports form
Time is now: 28th May 2020 - 11:53:13