Welcome Guest ( Log In | Register )

> Releases Upload / Добавление релизов

Добавить релиз тут / Click here to add release
Рекомендованные обменники / Recommended file shares

> Pile Of Priests - Pile Of Priests (2020), Progressive Death/Thrash Metal
post May 21 2020, 17:43:16
Post #1

Правь статус, ####!111
**************
Group: Металариец
Posts: 21,845
Releases: 15058
From: Г.Харьков
On Forums: 8 years 2 weeks
Thanks: 272806 time(s)
Unknown


(IMG:https://metalarea.org/images/audiocovers/2020_May/acov_tid337919_thumb.jpg)

*Artist: Pile Of Priests
*Album: Pile Of Priests
*Year: 2020
*Genre: Progressive Death/Thrash Metal
*Country: United States (IMG:https://metalarea.org/forum/style_images/flags/United%20States.png)
*Format: mp3@CBR320kbps
*Size: 100MB

Tracklist:
1. Intro 01:28
2. The Aversion 03:28
3. Death of the Paragon 06:09
4. Exile unto Divination 05:17
5. Conjunction of Souls 05:06
6. The Threshold 02:22
7. Deus Delenda Est 06:05
8. Bloodstained Citadel 04:24
9. The Restitution 08:36
******************************
Total playing time: 42:55




Extended info
Patrick Leyn Bass
See also: ex-Centimani, ex-Depths of Dementia
Evan Salvador Guitars, Vocals (2009-present)
See also: Lord Dahthar, ex-Thorns of Acanthus
Evan Knight Drums (2012-present)
See also: Astraeus, Sar Isatum, Suns of Sorath, Akhlys (live), Aoratos (live), ex-Dremaura
Daryl Martin Guitars (rhythm) (2018-present)



Technical info
(IMG:https://metalarea.org/images/spectrogram/2020_May/d568e35824abdcfccec364254237470f.png)
Input File: 5 - Conjunction Of Souls.mp3
Channels : 2
Sample Rate : 44100
Precision : 16-bit
Duration : 00:05:06.07 = 13497687 samples = 22955.2 CDDA sectors
File Size : 12.4M
Bit Rate : 323k
Sample Encoding: MPEG audio (layer I, II or III)
Comments :
Title=Conjunction Of Souls
Artist=Pile of Priests
Album=Pile Of Priests
Tracknumber=5
Year=2020
Genre=Rock
Discnumber=1



Register


Go to the top of the page
  Insert nick Quick quote
+Quote Post
 
Start new topic
Replies (1 - 4)
post May 21 2020, 19:09:02
Post #2

Шесть Литров
******
Group: Металариец
Posts: 532
Releases: 1
From: Тверская
On Forums: 13 years 3 weeks
Thanks: 269 time(s)
Russian Federation


Судя по превью, бас очень интересный .
Go to the top of the page
  Insert nick Quick quote
+Quote Post
post May 22 2020, 08:40:54
Post #3

Мегаманьяк
***********
Group: Металариец
Posts: 1,746
Releases: 0
On Forums: 11 years 2 months
Thanks: 693 time(s)
Antarctica


Качественный мелодичный дэт/трэш, настолько, что я даже не знаю - забирать или нет. Чуть-чуть недожали, ходят где-то на грани. Маловато ярких моментов.
Bloodstained Citadel из превью - сильнейшая композиция на альбоме (благодаря замедлённому проигрышу с соло). Хотелось бы отметить также идеально сбалансированное звучание инструментов.
Заберу всё-таки.


Go to the top of the page
  Insert nick Quick quote
+Quote Post
post May 22 2020, 21:17:20
Post #4

hearer & reader
**************
Group: Металариец
Posts: 8,687
Releases: 140
From: Moscow
On Forums: 12 years 8 months
Thanks: 8688 time(s)
Russian Federation


Register


Thanks:
Go to the top of the page
  Insert nick Quick quote
+Quote Post
post Yesterday, 19:37:59
Post #5

Литр
*
Group: Подсевший
Posts: 67
Releases: 0
From: Москва
On Forums: 13 years 7 months
Thanks: 17 time(s)
Russian Federation


Басила, наверное, лидер команды - бас слышен отчетливо, хотя звучит, имхо, слишком рОково для их стиля. В "Death of the Paragon" запахло безладом)
Материал неплох, хотя и не особо зацепил.
Оставить, на мой взгляд, можно.
Go to the top of the page
  Insert nick Quick quote
+Quote Post

Reply to this topicStart new topic
2 User(s) are reading this topic (2 Guests and 0 Anonymous Users)
0 Members:

 



- Lo-Fi Version Support form
Copyrights and abuse reports form
Time is now: 25th May 2020 - 02:08:58