Welcome Guest ( Log In | Register )

> Releases Upload / Добавление релизов

Добавить релиз тут / Click here to add release
Рекомендованные обменники / Recommended file shares

> Oxidize - Dark Confessions (2020), Melodic Heavy Metal
post May 21 2020, 18:07:29
Post #1

MDM-Thrash Metal
**************
Group: Металариец
Posts: 9,517
Releases: 861
From: Одесса
On Forums: 12 years 9 months
Thanks: 22583 time(s)
Ukraine


(IMG:http://metalarea.org/images/audiocovers/2020_May/acov_tid337920_thumb.jpg)

*Artist: Oxidize
*Album: Dark Confessions
*Year: 2020
*Genre: Melodic Heavy Metal
*Country: Sweden (IMG:http://metalarea.org/forum/style_images/flags/Sweden.png)
*Format: mp3@CBR320kbps
*Size: 120MB

Tracklist:
01. Heading for Tomorrow 05:00
02. Bleeding Heart 03:55
03. Coma 2:59
04. Not an Angel 04:04
05. Tell Me Why 04:50
06. Revolution 04:17
07. Anti Hero 04:12
08. Hey Angel 05:23
09. Dark Confessions 05:19
10. Titanic 03:39
11. Devil in Disguise 05:19
12. Crucify Me 03:13
******************************
Total playing time: 52:10

(IMG:http://metalarea.org/images/youtube.png)


Technical info
(IMG:http://metalarea.org/images/spectrogram/2020_May/e57ad5c885a438478e8a6fc1c5d49d2d.png)
Input File: 02 - Bleeding Heart.mp3
Channels : 2
Sample Rate : 44100
Precision : 16-bit
Duration : 00:03:54.75 = 10352563 samples = 17606.4 CDDA sectors
File Size : 9.46M
Bit Rate : 323k
Sample Encoding: MPEG audio (layer I, II or III)
Comments :
Title=Bleeding Heart
Artist=Oxidize
Album=Dark Confessions
Tracknumber=2
Year=2020
Genre=Metal
Discnumber=1



Register


Go to the top of the page
  Insert nick Quick quote
+Quote Post
 
Start new topic
Replies (1 - 3)
post May 22 2020, 06:05:11
Post #2

hearer & reader
**************
Group: Металариец
Posts: 8,695
Releases: 140
From: Moscow
On Forums: 12 years 8 months
Thanks: 8713 time(s)
Russian Federation


Niclas Karlsson, lead guitar (Crystal Eyes, Zonata, Fierce Conviction)
Per Stalfors, guitar (ex-Arctic Void)
Anton Darusso, the lead singer (Wings of Destiny)
Tommy Larsson, bass (Fullforce, Heed, Manimal)
Mika Vainio, drums (Mrs. Hippie, Harcore superstar, Brassmonkey, etc.)


https://music.yandex.ru/album/10506198
Go to the top of the page
  Insert nick Quick quote
+Quote Post
post May 22 2020, 06:30:18
Post #3

Group: Подсевший
Posts: 23
Releases: 0
On Forums: 12 years 6 days
Thanks: 7 time(s)
Russian Federation


ЦИТАТА(AHBAnep @ May 22 2020, 10:05:11) *

Чет тут какой-то дэт прикиркоренный в превью на ютубе оказался.
Впрочем, группы стоящие друг друга - шо то х**ня, шо это.
Go to the top of the page
  Insert nick Quick quote
+Quote Post
post May 26 2020, 14:37:00
Post #4

Четыре Литра
****
Group: Металариец
Posts: 347
Releases: 0
From: Ташкент
On Forums: 12 years 3 months
Thanks: 98 time(s)
Uzbekistan


Офигенная группа. Причем басист уже успел помереть ((
Go to the top of the page
  Insert nick Quick quote
+Quote Post

Reply to this topicStart new topic
1 User(s) are reading this topic (1 Guests and 0 Anonymous Users)
0 Members:

 



- Lo-Fi Version Support form
Copyrights and abuse reports form
Time is now: 28th May 2020 - 19:08:03