Welcome Guest ( Log In | Register )

> Releases Upload / Добавление релизов

Добавить релиз тут / Click here to add release
Рекомендованные обменники / Recommended file shares

 
Reply to this topicStart new topic
> War Cloud - Earhammer Sessions [live] (2020), Heavy/Speed Metal/Psychedelic Rock
post May 21 2020, 18:18:42
Post #1

Правь статус, ####!111
**************
Group: Металариец
Posts: 2,786
Releases: 2489
From: Одесса
On Forums: 11 years 11 months
Thanks: 23616 time(s)
Ukraine


(IMG:http://metalarea.org/images/audiocovers/2020_May/acov_tid337922_thumb.jpg)

*Artist: War Cloud
*Album: Earhammer Sessions [live]
*Year: 2020
*Genre: Heavy/Speed Metal/Psychedelic Rock
*Country: United States (IMG:http://metalarea.org/forum/style_images/flags/United%20States.png)
*Format: mp3@CBR320kbps
*Size: 70MB

Tracklist:
1. Vulture City
2. Give’r
3. Chopper Wired
4. White Lightning
5. Divide and Conquer
6. Tomahawk
7. Speed Demon
8. Striker
******************************
Total playing time: 29:04



Extended info
Line - up:

Joaquin Ridgell - Drums (Cold Grave)
Alex Wein - Guitars, Vocals
Taylor Roach - Bass
Nick Burks - Guitars (Stonecutters)

(IMG:https://f4.bcbits.com/img/0017837935_10.jpg)


Technical info
(IMG:http://metalarea.org/images/spectrogram/2020_May/cc0afc6e1716314a910c924e7a6736d1.png)
Input File: 5 - Divide And Conquer (Earhammer Sessions).mp3
Channels : 2
Sample Rate : 44100
Precision : 16-bit
Duration : 00:04:30.67 = 11936635 samples = 20300.4 CDDA sectors
File Size : 10.9M
Bit Rate : 322k
Sample Encoding: MPEG audio (layer I, II or III)
Comments :
Title=Divide And Conquer (Earhammer Sessions)
Artist=War Cloud
Album=Earhammer Sessions (Live)
Tracknumber=5
Year=2020
Genre=Heavy/Speed Metal/Psychedelic Rock



Register


Go to the top of the page
  Insert nick Quick quote
+Quote Post

Reply to this topicStart new topic
1 User(s) are reading this topic (1 Guests and 0 Anonymous Users)
0 Members:

 



- Lo-Fi Version Support form
Copyrights and abuse reports form
Time is now: 28th May 2020 - 19:17:52