Welcome Guest ( Log In | Register )

> Releases Upload / Добавление релизов

Добавить релиз тут / Click here to add release
Рекомендованные обменники / Recommended file shares

 
Reply to this topicStart new topic
> Primal Fear - Along Came The Devil [single] (2020), Heavy/Power Metal (D)
post May 21 2020, 18:31:18
Post #1

MDM-Thrash Metal
**************
Group: Металариец
Posts: 9,517
Releases: 861
From: Одесса
On Forums: 12 years 9 months
Thanks: 22583 time(s)
Ukraine


(IMG:http://metalarea.org/images/audiocovers/2020_May/acov_tid337923_thumb.jpg)

*Artist: Primal Fear
*Album: Along Came The Devil [single]
*Year: 2020
*Genre: Heavy/Power Metal
*Country: Germany (IMG:http://metalarea.org/forum/style_images/flags/Germany.png)
*Format: mp3@CBR320kbps
*Size: 10MB

Tracklist:
1. Along Came the Devil 04:21
******************************
Total playing time: 4:21


(IMG:http://metalarea.org/images/youtube.png)

Extended info
Mat Sinner Bass, Vocals (1997-present)
See also: Goddess Shiva, Jorn, Kiske / Somerville, Level 10, Silent Force, Sinner, Mat Sinner, Voodoo Circle, ex-Scheepers (live), ex-Cans
Tom Naumann Guitars (1997-2000, 2003-2007, 2015-present)
See also: Sinner, Mat Sinner, ex-Godiva (live)
Ralf Scheepers Vocals (1997-present)
See also: Blackwelder, Scheepers, ex-F.B.I., ex-Gamma Ray, ex-Tyran' Pace
Magnus Karlsson Guitars (2008-present)
See also: Allen / Olzon, Kiske / Somerville, Magnus Karlsson's Free Fall, The Codex, The Ferrymen, Planet Alliance, ex-Last Tribe, ex-Midnight Sun, Starbreaker, ex-Allen - Lande, ex-Bob Catley, ex-Scheepers (live)
Alex Beyrodt Guitars (2011-present)
See also: Jorn, Level 10, Missa Mercuria, Silent Force, Mat Sinner, ex-The Sygnet, ex-Wild Axes, Voodoo Circle, ex-Sinner
Michael Ehré Drums (2019-present)
See also: Gamma Ray, Nitewalk, The Unity, Unisonic (live), ex-Love.Might.Kill, ex-Metalium, ex-Murder One, ex-Pryer, Uli Jon Roth (live), ex-Firewind, ex-Starchild, ex-Hansen & Friends (live), ex-Vinnie Moore (live), ex-Matt Gonzo Roehr, ex-Kee Marcello (live)


Technical info
(IMG:http://metalarea.org/images/spectrogram/2020_May/ed90f41d8162b8928f614eac6b2eb0c7.png)
Input File: 01 primal_fear_along_came_the_devil.mp3
Channels : 2
Sample Rate : 44100
Precision : 16-bit
Duration : 00:04:21.27 = 11521919 samples = 19595.1 CDDA sectors
File Size : 10.6M
Bit Rate : 326k
Sample Encoding: MPEG audio (layer I, II or III)
Comments :
Title=Along Came the Devil
Artist=Primal Fear
Album=Along Came the Devil
Tracknumber=01
Year=2020-15-05
Genre=Metal
Discnumber=1/1



Register


Go to the top of the page
  Insert nick Quick quote
+Quote Post

Reply to this topicStart new topic
2 User(s) are reading this topic (2 Guests and 0 Anonymous Users)
0 Members:

 



- Lo-Fi Version Support form
Copyrights and abuse reports form
Time is now: 28th May 2020 - 19:23:23