Welcome Guest ( Log In | Register )

> Releases Upload / Добавление релизов

Добавить релиз тут / Click here to add release
Рекомендованные обменники / Recommended file shares

> Milopkl - Undercrowned (2020), Black/Thrash Metal
post May 21 2020, 18:34:06
Post #1

Правь статус, ####!111
**************
Group: Металариец
Posts: 21,875
Releases: 15079
From: Г.Харьков
On Forums: 8 years 2 weeks
Thanks: 273344 time(s)
Unknown


(IMG:https://metalarea.org/images/audiocovers/2020_May/acov_tid337924_thumb.jpg)

*Artist: Milopkl
*Album: Undercrowned
*Year: 2020
*Genre: Black/Thrash Metal
*Country: International (IMG:https://metalarea.org/forum/style_images/flags/International.png)
*Format: mp3@CBR320kbps
*Size: 109MB

Tracklist:
1. Kill the Planet
2. Tidal Rage
3. The Marathon
4. Hellraiser
5. Madness Into Death
6. Overthrone
7. Demonizer
8. Undercrowned
******************************
Total playing time: 47:24



Extended info
YassyPKL Drums
See also: Pukelization, ex-Luciffer, ex-Deathtopia
MiloPKL Vocals, Guitars, Bass
See also: Pukelization


Technical info
(IMG:https://metalarea.org/images/spectrogram/2020_May/4365dd7327a26aecccdf00d83fd7069d.png)
Input File: 05 - Madness Into Death.mp3
Channels : 2
Sample Rate : 44100
Precision : 16-bit
Duration : 00:04:09.56 = 11005772 samples = 18717.3 CDDA sectors
File Size : 10.1M
Bit Rate : 324k
Sample Encoding: MPEG audio (layer I, II or III)
Comments :
Title=Madness Into Death
Artist=Milopkl
Album=Undercrowned
Tracknumber=5
Year=2020



Register


Go to the top of the page
  Insert nick Quick quote
+Quote Post
 
Start new topic
Replies (1 - 2)
post May 21 2020, 21:17:17
Post #2

Мегаманьяк
***********
Group: Металариец
Posts: 1,746
Releases: 0
On Forums: 11 years 2 months
Thanks: 695 time(s)
Antarctica


Бодрый трэш/спид, в основном без изысков, но проигрыши с соляками прям отличные - они и подкупают, заставляют задуматься - а не скачать ли? Но увы - они продолжаются недолго, а потом опять идёт "без изысков". Альбом неплохой, но недостаточно хорош для меня)


Thanks:
Go to the top of the page
  Insert nick Quick quote
+Quote Post
post May 22 2020, 05:49:04
Post #3

hearer & reader
**************
Group: Металариец
Posts: 8,695
Releases: 140
From: Moscow
On Forums: 12 years 8 months
Thanks: 8713 time(s)
Russian Federation


Go to the top of the page
  Insert nick Quick quote
+Quote Post

Reply to this topicStart new topic
1 User(s) are reading this topic (1 Guests and 0 Anonymous Users)
0 Members:

 



- Lo-Fi Version Support form
Copyrights and abuse reports form
Time is now: 28th May 2020 - 19:30:02