Welcome Guest ( Log In | Register )

> Releases Upload / Добавление релизов

Добавить релиз тут / Click here to add release
Рекомендованные обменники / Recommended file shares

> Leather Witch - Leather Witch (2020), Heavy/Speed Metal
post May 21 2020, 18:42:52
Post #1

MDM-Thrash Metal
**************
Group: Металариец
Posts: 9,517
Releases: 861
From: Одесса
On Forums: 12 years 9 months
Thanks: 22583 time(s)
Ukraine


(IMG:http://metalarea.org/images/audiocovers/2020_May/acov_tid337925_thumb.jpg)

*Artist: Leather Witch
*Album: Leather Witch
*Year: 2020
*Genre: Heavy/Speed Metal
*Country: Colombia (IMG:http://metalarea.org/forum/style_images/flags/Colombia.png)
*Format: mp3@CBR320kbps
*Size: 66MB

Tracklist:
1. Pull the Trigger 03:42
2. Stronger than Death 05:11
3. Day of Glory 04:00
4. Murder Ride 03:21
5. No Pain, No Game 04:26
6. Fast Killer 03:48
7. Do It for Money 03:27
8. Leather Witch 03:33
******************************
Total playing time: 31:28


(IMG:http://metalarea.org/images/youtube.png)

Extended info
Hernan Gonzalez "Otto" Bass
Juan "Chamo" Hurtado Drums
See also: No Remorse, ex-Aggressive
Pablo Meza Guitars (lead)
See also: Tears of Glory
José Uribe Guitars (rhythm)
See also: Cold Evocation, No Remorse, Rebelion, Shadows and Chaos, Vaitor
Tania Ospina Gomez Vocals
See also: Black Head, Macabre Bullet, Tania


Technical info
(IMG:http://metalarea.org/images/spectrogram/2020_May/d9d151b79f614903e15f0e4778589be4.png)
Input File: 02_leather_witch_stronger_than_death.mp3
Channels : 2
Sample Rate : 44100
Precision : 16-bit
Duration : 00:05:11.27 = 13726963 samples = 23345.2 CDDA sectors
File Size : 12.6M
Bit Rate : 324k
Sample Encoding: MPEG audio (layer I, II or III)
Comments :
Title=Stronger than Death
Artist=Leather Witch
Album=Leather Witch
Tracknumber=2/8
Year=2020
Genre=17
Discnumber=1/1



Register


Go to the top of the page
  Insert nick Quick quote
+Quote Post
 
Start new topic
Replies (1 - 1)
post May 22 2020, 14:30:28
Post #2

Правь статус, ####!111
**************
Group: Металариец
Posts: 3,007
Releases: 8
From: Dnipro
On Forums: 11 years 10 months
Thanks: 970 time(s)
Ukraine




Thanks:
Go to the top of the page
  Insert nick Quick quote
+Quote Post

Reply to this topicStart new topic
3 User(s) are reading this topic (3 Guests and 0 Anonymous Users)
0 Members:

 



- Lo-Fi Version Support form
Copyrights and abuse reports form
Time is now: 28th May 2020 - 19:38:53