Welcome Guest ( Log In | Register )

> Releases Upload / Добавление релизов

Добавить релиз тут / Click here to add release
Рекомендованные обменники / Recommended file shares

> Hellcome! - Good Friends, Bad Company (2020), Thrash Metal
post May 21 2020, 19:12:56
Post #1

Правь статус, ####!111
**************
Group: Металариец
Posts: 21,866
Releases: 15074
From: Г.Харьков
On Forums: 8 years 2 weeks
Thanks: 273171 time(s)
Unknown


(IMG:https://metalarea.org/images/audiocovers/2020_May/acov_tid337928_thumb.jpg)

*Artist: Hellcome!
*Album: Good Friends, Bad Company
*Year: 2020
*Genre: Thrash Metal
*Country: Italy (IMG:https://metalarea.org/forum/style_images/flags/Italy.png)
*Format: mp3@CBR320kbps
*Size: 92MB

Tracklist:
01. Good Friends, Bad Company 03:30
02. Dead City Lights 04:28
03. Revenge 04:04
04. Can You Feel My Hate? 04:36
05. Until See Snakes 04:12
06. The Art of Squirting 03:25
07. Motörhead 02:59
08. Life Parade 04:03
09. Liver 04:44
******************************
Total playing time: 36:01



Extended info
Marco Cane Monacelli (Voce e Chitarra)
Sauro Mori (Chitarra)
Matteo Carovana (Basso)
Alessio Monacelli (Batteria)


Technical info
(IMG:https://metalarea.org/images/spectrogram/2020_May/2b143a27ae36c3f0ef545ac7598eb146.png)
Input File: 04 Can You Feel My Hate_.mp3
Channels : 2
Sample Rate : 44100
Precision : 16-bit
Duration : 00:04:36.34 = 12186506 samples = 20725.4 CDDA sectors
File Size : 12.3M
Bit Rate : 357k
Sample Encoding: MPEG audio (layer I, II or III)
Comments :
Title=Can You Feel My Hate?
Artist=Hellcome!
Album=Good Friends, Bad Company
Tracknumber=4/9
Year=2020



Register


Go to the top of the page
  Insert nick Quick quote
+Quote Post
 
Start new topic
Replies (1 - 1)
post May 22 2020, 09:38:57
Post #2

Тридцать лет на борту "Тяжёлого" крейсера
**************
Group: Металариец
Posts: 2,277
Releases: 0
From: Питер
On Forums: 12 years 11 months
Thanks: 638 time(s)
Russian Federation


неплохой мелодик-трэш, для нечастого прогона
Go to the top of the page
  Insert nick Quick quote
+Quote Post

Reply to this topicStart new topic
2 User(s) are reading this topic (2 Guests and 0 Anonymous Users)
0 Members:

 



- Lo-Fi Version Support form
Copyrights and abuse reports form
Time is now: 28th May 2020 - 12:45:18