Welcome Guest ( Log In | Register )

> Releases Upload / Добавление релизов

Добавить релиз тут / Click here to add release
Рекомендованные обменники / Recommended file shares

> Acerus - The Tertiary Rite (2020), Heavy Metal
post May 21 2020, 19:33:58
Post #1

Правь статус, ####!111
**************
Group: Металариец
Posts: 21,865
Releases: 15074
From: Г.Харьков
On Forums: 8 years 2 weeks
Thanks: 273166 time(s)
Unknown


(IMG:https://metalarea.org/images/audiocovers/2020_May/acov_tid337930_thumb.jpg)

*Artist: Acerus
*Album: The Tertiary Rite
*Year: 2020
*Genre: Heavy Metal
*Country: United States (IMG:https://metalarea.org/forum/style_images/flags/United%20States.png)
*Format: mp3@CBR320kbps
*Size: 121MB

Tracklist:
1. The Mediumship 03:27
2. The Arrival of Him 04:51
3. The Immersion 06:07
4. The Foresight 05:37
5. The Sinister Sea 06:16
6. The Fight with Destiny 05:56
7. The Riddle's Force 05:16
8. The Tertiary Rite 08:50
******************************
Total playing time: 46:20



Extended info
Ed Escamilla Guitars (lead)
See also: Reign, Terranaut, ex-Cannibal Abortion, ex-Texas Toast Chainsaw Massacre
Esteban Julian Pena Vocals
Daniel Corchado Bass, Guitars, Vocals, Drum programming (2012-present)
See also: Magnum Itiner Interius, The Chasm, ex-Damned Cross, ex-Cenotaph, ex-Incantation, ex-Obeisance, ex-Metalucifer (live)
Mario Hernandez Drums (2018-present)


Technical info
(IMG:https://metalarea.org/images/spectrogram/2020_May/0986bc40e44d154b822ea81efe7bec16.png)
Input File: 03 The Immersion.mp3
Channels : 2
Sample Rate : 44100
Precision : 16-bit
Duration : 00:06:07.48 = 16206044 samples = 27561.3 CDDA sectors
File Size : 16.7M
Bit Rate : 363k
Sample Encoding: MPEG audio (layer I, II or III)
Comments :
Title=The Immersion
Artist=Acerus
Album=The Tertiary Rite
Tracknumber=3
Year=2020



Register


Go to the top of the page
  Insert nick Quick quote
+Quote Post
 
Start new topic
Replies (1 - 2)
post May 21 2020, 21:37:18
Post #2

Правь статус, ####!111
**************
Group: Металариец
Posts: 46,420
Releases: 716
On Forums: 10 years 11 months
Thanks: 38914 time(s)
Russian Federation


Асериус, ты? (IMG:style_emoticons/default/15.gif)
Go to the top of the page
  Insert nick Quick quote
+Quote Post
post May 22 2020, 08:15:56
Post #3

hearer & reader
**************
Group: Металариец
Posts: 8,695
Releases: 140
From: Moscow
On Forums: 12 years 8 months
Thanks: 8709 time(s)
Russian Federation



Эти молодцы.


Thanks:
(1) Olrak,
Go to the top of the page
  Insert nick Quick quote
+Quote Post

Reply to this topicStart new topic
2 User(s) are reading this topic (2 Guests and 0 Anonymous Users)
0 Members:

 



- Lo-Fi Version Support form
Copyrights and abuse reports form
Time is now: 28th May 2020 - 12:02:11