Welcome Guest ( Log In | Register )

> Releases Upload / Добавление релизов

Добавить релиз тут / Click here to add release
Рекомендованные обменники / Recommended file shares

 
Reply to this topicStart new topic
> Bog - Unshriven (2017), Post-Metal
post May 21 2020, 20:00:13
Post #1

Ёлд ХеллоВяйне
Group Icon
Group: V.I.P
Posts: 29,683
Releases: 137
From: Питер
On Forums: 13 years 7 months
Thanks: 17587 time(s)
Russian Federation


(IMG:http://metalarea.org/images/audiocovers/2020_May/acov_tid337931_thumb.jpg)

*Artist: Bog
*Album: Unshriven
*Year: 2017
*Genre: Post-Metal
*Country: Austria (IMG:http://metalarea.org/forum/style_images/flags/Austria.png)
*Format: mp3@CBR320kbps
*Size: 168MB

Tracklist:
1. Vague Dreams 00:38
2. Heedless 05:23
3. Spare 05:59
4. Marrow 09:08
5. Vanish 03:10
6. Fellow Traveller 08:19
7. Primus Inter Pares 08:27
8. Stay 05:40
9. Mère 09:23
10. Ninety-Two 04:47
11. Unshriven 10:20
******************************
Total playing time: 1:11:14

(IMG:http://metalarea.org/images/youtube.png)


Extended info
Хорошо пиликает, грузно.

Songwriting, Lyrics, Guitars, Bass, Keys, Recording, Artwork, Photography - Tim Primbs
Drums - Matthew Jon Prokop
Additional Keys on 4 - Christian Pobaschnig
Vocals on song 5 - Joel Nathaniel Boyd
Vocals and Lyrics on song 8 - Julia Schwarzer
Vocals on song 6,7,9,11 - Josh Wing
Vocals for song 8 and ALL Drums recorded by Ronald Dangl
Spoken words in Song 1 and 9 by Elisabeth Kuebler-Ross
Mixing/Mastering - Will Benoit


Technical info
(IMG:http://metalarea.org/images/spectrogram/2020_May/5c348425ef5d090389ed12c6d64029b7.png)
Input File: 09 Mère.mp3
Channels : 2
Sample Rate : 44100
Precision : 16-bit
Duration : 00:09:23.08 = 24831696 samples = 42230.8 CDDA sectors
File Size : 22.6M
Bit Rate : 321k
Sample Encoding: MPEG audio (layer I, II or III)
Comments :
Title=Mère
Artist=BOG
Album=Unshriven
Tracknumber=9/11
Year=2017
Genre=Post-Metal



Register


Go to the top of the page
  Insert nick Quick quote
+Quote Post

Reply to this topicStart new topic
2 User(s) are reading this topic (2 Guests and 0 Anonymous Users)
0 Members:

 



- Lo-Fi Version Support form
Copyrights and abuse reports form
Time is now: 28th May 2020 - 13:21:56