Welcome Guest ( Log In | Register )

> И неформату есть предел.

Рэп/хип-хоп/шансон/поп удаляются. Для них есть свои порталы.

 
Reply to this topicStart new topic
> Jimmy Hotz - Beyond The Crystal Sea (1980), Progressive Rock
post May 21 2020, 21:32:09
Post #1

Шесть Литров
******
Group: Металариец
Posts: 629
Releases: 123
On Forums: 1 year 4 months
Thanks: 1475 time(s)
Canada


(IMG:https://metalarea.org/images/audiocovers/2020_May/acov_tid337932_thumb.JPG)

*Artist: Jimmy Hotz
*Album: Beyond The Crystal Sea
*Year: 1980
*Genre: Progressive Rock
*Country: United States (IMG:https://metalarea.org/forum/style_images/flags/United%20States.png)
*Format: mp3@CBR192kbps
*Size: 59MB

Tracklist:
1. Observations Of A Larger Reality 08:32
2. Night Passage 02:12
3. The Vision Ship 05:35
4. Teton 03:18
5. Beyond The Blues 04:53
6. Alpine Magic 01:42
7. From Love Life Did Begin 06:51
8. Long Long Ago 05:47
9. The Gates Of Time 03:45
******************************
Total playing time: 42:35

Extended info
Thanks to the original uploader.

Beyond the Crystal Sea (1980)(2010 CD re-release)
Genre: Christian Progressive Rock

https://en.wikipedia.org/wiki/Jimmy_Hotz

He recorded a solo album, Beyond the Crystal Sea, in the late 70s, which was released in 1980.
It is listed as one of the Top 100 Christian Rock Albums of All Time, No. 98 and one of CCM's 500 Best Albums Of All Time No. 210.
It is also considered one of, if not the best example of "Christian Art Rock" by critics and collectors.

https://www.discogs.com/Jimmy-Hotz-Beyond-The-Crystal-Sea-30th-Anniversary-Edition/release/4158903


Technical info
(IMG:https://metalarea.org/images/spectrogram/2020_May/ea2b498d2ddf8173d4704ba0703b6a71.png)
Input File: 02 - Night Passage.mp3
Channels : 2
Sample Rate : 44100
Precision : 16-bit
Duration : 00:02:12.98 = 5864198 samples = 9973.13 CDDA sectors
File Size : 3.19M
Bit Rate : 192k
Sample Encoding: MPEG audio (layer I, II or III)
Comments :
Title=Night Passage
Artist=Jimmy Hotz
Album=Beyond the Crystal Sea
Tracknumber=02/9
Year=1980
Genre=Progressive Rock
Discnumber=1/1



Register


Thanks:
Go to the top of the page
  Insert nick Quick quote
+Quote Post

Reply to this topicStart new topic
1 User(s) are reading this topic (1 Guests and 0 Anonymous Users)
0 Members:

 



- Lo-Fi Version Support form
Copyrights and abuse reports form
Time is now: 3rd June 2020 - 01:43:45