Welcome Guest ( Log In | Register )

> Releases Upload / Добавление релизов

Добавить релиз тут / Click here to add release
Рекомендованные обменники / Recommended file shares

> Goatchrist - The Philosopher's Hand (2020), Experimental Black Metal
post May 22 2020, 06:32:28
Post #1

Правь статус, ####!111
**************
Group: Металариец
Posts: 2,784
Releases: 2488
From: Одесса
On Forums: 11 years 11 months
Thanks: 23589 time(s)
Ukraine


(IMG:http://metalarea.org/images/audiocovers/2020_May/acov_tid337935_thumb.jpg)

*Artist: Goatchrist
*Album: The Philosopher's Hand
*Year: 2020
*Genre: Experimental Black Metal
*Country: United Kingdom (IMG:http://metalarea.org/forum/style_images/flags/United%20Kingdom.png)
*Format: mp3@CBR320kbps
*Size: 88MB

Tracklist:
1. Mastery of All and Nothing [Crown; Adam Kadmon] 01:03
2. Mastery of Archetypes [Star; Atziluth] 11:33
3. Mastery of Creation [Sun; Beriah] 07:49
4. Mastery of Formation [Lantern; Yetzirah] 09:41
5. Mastery of Physicality [Key; Assiah] 07:20
******************************
Total playing time: 37:26



Extended info
FLAC RIP

Line - up:

J. Guilherme - Everything (ex-Lord Andras, ex-Mors Voluntaria, ex-Rancid Entity, ex-Nattsvargr, ex-Kierkegaard, ex-Mundus)
D. Tann - Vocals


Technical info
(IMG:http://metalarea.org/images/spectrogram/2020_May/487b1b480ec3e5662c7e0a32c2d4ba22.png)
Input File: 03.mp3
Channels : 2
Sample Rate : 44100
Precision : 16-bit
Duration : 00:07:49.68 = 20713064 samples = 35226.3 CDDA sectors
File Size : 18.9M
Bit Rate : 321k
Sample Encoding: MPEG audio (layer I, II or III)
Comments :
Title=Mastery of Creation [Sun; Beriah]
Artist=Goatchrist
Album=The Philosopher's Hand
Tracknumber=3
Year=2020
Genre=Experimental Black Metal, Various/Electronic



Register


This post has been edited by Borderline1991: May 22 2020, 12:29:06


Go to the top of the page
  Insert nick Quick quote
+Quote Post
 
Start new topic
Replies (1 - 5)
post May 22 2020, 14:31:29
Post #2

7 литров
*****
Group: Металариец
Posts: 479
Releases: 0
On Forums: 12 years 9 months
Thanks: 240 time(s)
Ukraine


Прослушал бегло по диагонали на bandcampe. Могу сказать что это не блэк. Если глухие пердёжные звуки хер пойми откуда, пощёлкивания и попёрдывания считаются за экспериментал в 2020, то ок. Вероятно я чего-то не понимаю.
Гитар и барабанов нету, музыки нету, идеи и концепции нету.
С каждым годом всё тяжелее и тяжелее ставновится отлавливать что-то классное и красивое копаясь в тоннах говн.


Go to the top of the page
  Insert nick Quick quote
+Quote Post
post May 24 2020, 03:43:37
Post #3

Grind the Human Scum
**********
Group: Металариец
Posts: 1,021
Releases: 18
On Forums: 13 years 4 months
Thanks: 971 time(s)
Russian Federation


ЦИТАТА(damage666 @ May 22 2020, 16:31:29) *
С каждым годом всё тяжелее и тяжелее ставновится отлавливать что-то классное и красивое копаясь в тоннах говн.

Тем слаще и искренней радость о добытом и отведанном
Go to the top of the page
  Insert nick Quick quote
+Quote Post
post May 24 2020, 11:28:10
Post #4

********
Group: Металариец
Posts: 819
Releases: 9
On Forums: 13 years 7 months
Thanks: 454 time(s)
Norfolk Island


Неплохая вещь, но никоим образом не БМ, а типичнейший дрон эмбиент.
Go to the top of the page
  Insert nick Quick quote
+Quote Post
post May 25 2020, 09:34:15
Post #5

7 литров
*****
Group: Металариец
Posts: 479
Releases: 0
On Forums: 12 years 9 months
Thanks: 240 time(s)
Ukraine


ЦИТАТА(Evilded @ May 24 2020, 05:43:37) *
Тем слаще и искренней радость о добытом и отведанном

Оно как бы да, но с другой стороны, если совсем уж по чесному, то я всё чаще и чаще возвращаюсь к какой-то классике 10-20 летней давности, и получаю ещё больше удовольствия чем от новинок.
Либо исследую для себя что-то совершенно новое в музыкальных стилях и/или музыкантах.
Go to the top of the page
  Insert nick Quick quote
+Quote Post
post May 25 2020, 18:28:00
Post #6

Два Литра
**
Group: Завсегдатай
Posts: 164
Releases: 0
On Forums: 3 months 6 days
Thanks: 95 time(s)
Unknown


От Блэк Метала эта музыкальная поделка достаточно далека. "Ритуальный" дроун средней паршивости. Ничего интересного
Go to the top of the page
  Insert nick Quick quote
+Quote Post

Reply to this topicStart new topic
2 User(s) are reading this topic (2 Guests and 0 Anonymous Users)
0 Members:

 



- Lo-Fi Version Support form
Copyrights and abuse reports form
Time is now: 28th May 2020 - 13:58:39