Welcome Guest ( Log In | Register )

> Releases Upload / Добавление релизов

Добавить релиз тут / Click here to add release
Рекомендованные обменники / Recommended file shares

> Knudret Kommerdød & Moonkrafft - Knudret Kommerdød/Moonkrafft [split] (2020), Doom/Black Metal | Melodic Black Metal
post May 22 2020, 06:55:26
Post #1

Правь статус, ####!111
**************
Group: Металариец
Posts: 2,784
Releases: 2488
From: Одесса
On Forums: 11 years 11 months
Thanks: 23582 time(s)
Ukraine


(IMG:http://metalarea.org/images/audiocovers/2020_May/acov_tid337936_thumb.jpg)

*Artist: Knudret Kommerdød & Moonkrafft
*Album: Knudret Kommerdød/Moonkrafft [split]
*Year: 2020
*Genre: Doom/Black Metal | Melodic Black Metal
*Country: Australia (IMG:http://metalarea.org/forum/style_images/flags/Australia.png) | Australia (IMG:http://metalarea.org/forum/style_images/flags/Australia.png)
*Format: mp3@CBR320kbps
*Size: 56MB

Tracklist:
Knudret Kommerdød:
1. Strömblasviid 05:38
Moonkrafft:
2. Ode to the Anguished 06:24
Knudret Kommerdød:
3. When Darkness Devours 07:37
Moonkrafft:
4. Vinterkrieg 03:48
******************************
Total playing time: 23:27



Technical info
(IMG:http://metalarea.org/images/spectrogram/2020_May/a17b7033f1fb9132dfbe89c89e4eef20.png)
Input File: 02. Ode to the Anguished (Moonkrafft).mp3
Channels : 2
Sample Rate : 44100
Precision : 16-bit
Duration : 00:06:24.99 = 16978103 samples = 28874.3 CDDA sectors
File Size : 15.5M
Bit Rate : 322k
Sample Encoding: MPEG audio (layer I, II or III)
Comments :
Title=Ode to the Anguished
Artist=Knudret Kommerdod
Album=Knudret Kommerdod / Moonkrafft (Split)
Tracknumber=2
Year=2020



Register


Go to the top of the page
  Insert nick Quick quote
+Quote Post
 
Start new topic
Replies (1 - 1)
post May 22 2020, 18:48:00
Post #2

Маньяк
**********
Group: Металариец
Posts: 1,234
Releases: 0
From: Canada
On Forums: 7 years 6 months
Thanks: 759 time(s)
Canada


MOONKRAFFT has the most promising future from Australia I have heard in fast Melodic Blackmetal! I hope to hear more from them!
Go to the top of the page
  Insert nick Quick quote
+Quote Post

Reply to this topicStart new topic
2 User(s) are reading this topic (2 Guests and 0 Anonymous Users)
0 Members:

 



- Lo-Fi Version Support form
Copyrights and abuse reports form
Time is now: 28th May 2020 - 12:56:56